Tags
Language
Tags

Scorpions - Crazy World (1990) [2013, Univerasl Music, UICY-15260]

Posted By: v3122
Scorpions - Crazy World (1990) [2013, Univerasl Music, UICY-15260]

Scorpions - Crazy World (1990)
EAC | Flac(Image) + Cue + Log & MP3 CBR 320Kbps
Univerasl Music, UICY-15260 | Japan | ~ 543 or 180 Mb | Scans(jpg) -> 124 Mb
Hard Rock

After the release of Savage Amusement in 1988, the Scorpions expressed disdain toward the album, feeling that it was too polished when compared to their other work. Their longtime producer, Dieter Dierks, was replaced with well-known rock producer Keith Olsen, who would produce Crazy World and assist in making it one of the Scorpions' greatest recordings. Their music had certainly changed since Savage Amusement, sounding a little bit heavier and less glamorous. But even with the metal sound, the songs remain melodic and catchy. The power ballads on the album, "Wind of Change" and "Send Me an Angel," are arguably two of the band's greatest slow numbers, boasting soothing harmony and lyrics. Crazy World remains the Scorpions' finest '90s album and is sure to please its listeners.

by Barry Weber, allmusic
Scorpions - Crazy World (1990):

Scorpions - Crazy World (1990) [2013, Univerasl Music, UICY-15260]

Tracklist:

01. Tease Me Please Me (4:47)
02. Don't Believe Her (4:55)
03. To Be With You In Heaven (4:50)
04. Wind Of Change (5:13)
05. Restless Nights (5:47)
06. Lust Or Love (4:22)
07. Kicks After Six (3:49)
08. Money And Fame (5:09)
09. Hit Between The Eyes (4:34)
10. Crazy World (5:09)
11. Send Me An Angel (4:34)
12. Wind Of Change (Spanish Version) (5:10)
13. Wind Of Change (Russian Version) (3:44)
14. Big City Nights (Live B-Side) (5:14)
15. Holiday (Live B-Side) (3:26)
16. Hit Between The Eyes (Live B-Side) (4:14)

Exact Audio Copy V1.0 beta 3 from 29. August 2011

Отчёт EAC об извлечении, выполненном 11. октября 2014, 18:10

Scorpions / Crazy World (Deluxe Edition)

Дисковод: PIONEER DVD-RW DVR-220L Adapter: 0 ID: 0

Режим чтения : Достоверность
Использование точного потока : Да
Отключение кэша аудио : Да
Использование указателей C2 : Нет

Коррекция смещения при чтении : 6
Способность читать области Lead-in и Lead-out : Нет
Заполнение пропущенных сэмплов тишиной : Да
Удаление блоков с тишиной в начале и конце : Нет
При вычислениях CRC использовались нулевые сэмплы : Да
Интерфейс : Встроенный Win32-интерфейс для Win NT/2000

Выходной формат : Внутренние WAV-операции
Формат сэмплов : 44.100 Гц; 16 бит; стерео


TOC извлечённого CD

Трек | Старт | Длительность | Начальный сектор | Конечный сектор
––––––––––––––––––––––––––––––––––-
1 | 0:00.00 | 4:46.52 | 0 | 21501
2 | 4:46.52 | 4:55.28 | 21502 | 43654
3 | 9:42.05 | 4:50.13 | 43655 | 65417
4 | 14:32.18 | 5:13.05 | 65418 | 88897
5 | 19:45.23 | 5:47.20 | 88898 | 114942
6 | 25:32.43 | 4:22.03 | 114943 | 134595
7 | 29:54.46 | 3:48.44 | 134596 | 151739
8 | 33:43.15 | 5:09.16 | 151740 | 174930
9 | 38:52.31 | 4:34.37 | 174931 | 195517
10 | 43:26.68 | 5:08.57 | 195518 | 218674
11 | 48:35.50 | 4:33.57 | 218675 | 239206
12 | 53:09.32 | 5:09.59 | 239207 | 262440
13 | 58:19.16 | 3:44.12 | 262441 | 279252
14 | 62:03.28 | 5:14.10 | 279253 | 302812
15 | 67:17.38 | 3:27.27 | 302813 | 318364
16 | 70:44.65 | 4:12.23 | 318365 | 337287


Характеристики диапазона извлечения и сообщения об ошибках

Выбранный диапазон

Имя файла D:\! Tracker\Music\Scorpions\Scorpions Collection by mewzik\1990 - Crazy World (Deluxe Edition)\1990 - Crazy World (Deluxe Edition).wav

Пиковый уровень 96.6 %
Скорость извлечения 8.4 X
Качество диапазона 100.0 %
CRC теста 9D893B33
CRC копии 9D893B33
Копирование… OK

Ошибок не произошло


AccurateRip: сводка

Трек 1 : извлечено точно (доверие 1) [4885B088] (AR v2)
Трек 2 : извлечено точно (доверие 1) [277D9BE6] (AR v2)
Трек 3 : извлечено точно (доверие 1) [FABDA8A1] (AR v2)
Трек 4 : извлечено точно (доверие 1) [28CBC47A] (AR v2)
Трек 5 : извлечено точно (доверие 1) [1A236609] (AR v2)
Трек 6 : извлечено точно (доверие 1) [6876D0DB] (AR v2)
Трек 7 : извлечено точно (доверие 1) [BB072062] (AR v2)
Трек 8 : извлечено точно (доверие 1) [C92F8B9E] (AR v2)
Трек 9 : извлечено точно (доверие 1) [F75E50C1] (AR v2)
Трек 10 : извлечено точно (доверие 1) [75D71150] (AR v2)
Трек 11 : извлечено точно (доверие 1) [DE3C039A] (AR v2)
Трек 12 : извлечено точно (доверие 1) [8ACF0DFA] (AR v2)
Трек 13 : извлечено точно (доверие 1) [19EDFACB] (AR v2)
Трек 14 : извлечено точно (доверие 1) [DA133368] (AR v2)
Трек 15 : извлечено точно (доверие 1) [8848FE94] (AR v2)
Трек 16 : извлечено точно (доверие 1) [94EAA443] (AR v2)

Все треки извлечены точно

Конец отчёта


[CUETools log; Date: 12.10.2017 5:40:37; Version: 2.1.5]
CDDBId mismatch: ED119110 vs EC119110
[AccurateRip ID: 002d0000-02196c6c-ec119110] disk not present in database.

Track Peak [ CRC32 ] [W/O NULL] [ LOG ]
– 96,5 [9D893B33] [B6F95B3D] CRC32
01 96,5 [12CFFB21] [DD4E6896]
02 96,5 [4E4F50DF] [76114D52]
03 96,5 [0999C898] [1B95B07C]
04 96,5 [4507B020] [1692C99C]
05 96,5 [DE24D079] [C5F47126]
06 96,5 [4F47E703] [6D2D17A9]
07 96,5 [880BDB9F] [DB12AE6A]
08 96,5 [C1950515] [EA69CB72]
09 96,5 [6A585D9B] [DD58B245]
10 96,5 [DA30BD4F] [55440F76]
11 96,5 [A3CE3D66] [9516A8D1]
12 93,3 [A15AC76D] [D78EA1FB]
13 95,4 [B8D1CA15] [048D44EF]
14 96,5 [0C7D383B] [1DBE9FEC]
15 90,5 [E5A15415] [8D0488F6]
16 96,5 [EF0D44F7] [9BA996CA]


Scorpions - Crazy World (1990) [2013, Univerasl Music, UICY-15260]

All thanks go to mewzik

Scorpions in my Blog

Download Scorpions - Crazy World (1990):