Tags
Language
Tags

Scorpions - Live Bites (1995) [2010, Japan SHM-CD, UICY-94519]

Posted By: v3122
Scorpions - Live Bites (1995) [2010, Japan SHM-CD, UICY-94519]

Scorpions - Live Bites (1995) [2010, Japan SHM-CD, UICY-94519]
Hard Rock | EAC Rip | Flac(Image) + Cue + Log | MP3 CBR 320Kbps | 15 Tracks
Universal Music | UICY-94519 | 2010 Remastering | ~531 + 167 Mb
Scans( jpg) -> 63 Mb

As the title suggests, Live Bites is a collection of live tracks from the Scorpions, recorded at a time (between 1988 and 1995) when they weren't at the top of their form, despite the hit single "Winds of Change." There are occasional highlights that might make the CD worthwhile for the band's most dedicated fans.

~ Stephen Thomas Erlewine

Scorpions - Live Bites (1995)

Scorpions - Live Bites (1995) [2010, Japan SHM-CD, UICY-94519]

Tracklist:

01. Tease Me Please Me [04:51.84]
02. Is There Anybody There? [04:08.04]
03. Rhythm Of Love [03:45.64]
04. In Trance [04:06.38]
05. No Pain No Gain [04:06.54]
06. When the Smoke Is Going Down [02:36.93]
07. Ave Maria No Morro [03:15.77]
08. Living for Tomorrow [06:55.16]
09. Concerto In V [03:01.04]
10. Alien Nation [05:29.70]
11. Hit Between The Eyes [04:08.30]
12. Crazy World [05:34.05]
13. Wind of Change [05:46.33]
14. Heroes Don't Cry (Previously Unreleased Studio Track) [04:32.13]
15. White Dove (Previously Unreleased Studio Track) [04:17.77]

Personnel:

Klaus Meine - Lead Vocals
Rudolf Schenker - Rhythm Guitars, Background Vocals
Matthias Jabs - Lead Guitars, Background Vocals
Ralph Rieckermann - Bass, Background Vocals
Herman Rarebell - Drums, Percussion, Background Vocals

Exact Audio Copy V0.99 prebeta 5 from 4. May 2009

EAC extraction logfile from 30. September 2010, 23:14

Scorpions / Live Bites

Used drive : Optiarc BD RW BD-5730S6 Adapter: 0 ID: 1

Read mode : Secure
Utilize accurate stream : Yes
Defeat audio cache : Yes
Make use of C2 pointers : No

Read offset correction : 48
Overread into Lead-In and Lead-Out : No
Fill up missing offset samples with silence : Yes
Delete leading and trailing silent blocks : No
Null samples used in CRC calculations : Yes
Used interface : Native Win32 interface for Win NT & 2000

Used output format : User Defined Encoder
Selected bitrate : 768 kBit/s
Quality : High
Add ID3 tag : No
Command line compressor : C:\Program Files (x86)\Exact Audio Copy\FLAC\FLAC.EXE
Additional command line options : -8 -V -T "ARTIST=%a" -T "TITLE=%t" -T "ALBUM=%g" -T "DATE=%y" -T "TRACKNUMBER=%n" -T "GENRE=%m" -T "COMMENT=EAC FLAC -8" %s


TOC of the extracted CD

Track | Start | Length | Start sector | End sector
––––––––––––––––––––––––––––-
1 | 0:00.00 | 4:51.63 | 0 | 21887
2 | 4:51.63 | 4:08.03 | 21888 | 40490
3 | 8:59.66 | 3:45.48 | 40491 | 57413
4 | 12:45.39 | 4:06.29 | 57414 | 75892
5 | 16:51.68 | 4:06.41 | 75893 | 94383
6 | 20:58.34 | 2:36.70 | 94384 | 106153
7 | 23:35.29 | 3:15.58 | 106154 | 120836
8 | 26:51.12 | 6:55.12 | 120837 | 151973
9 | 33:46.24 | 3:01.03 | 151974 | 165551
10 | 36:47.27 | 5:29.53 | 165552 | 190279
11 | 42:17.05 | 4:08.23 | 190280 | 208902
12 | 46:25.28 | 5:34.04 | 208903 | 233956
13 | 51:59.32 | 5:46.25 | 233957 | 259931
14 | 57:45.57 | 4:32.10 | 259932 | 280341
15 | 62:17.67 | 4:17.58 | 280342 | 299674


Range status and errors

Selected range

Filename G:\Scorpions - Live Bites (2010 Japan SHM-CD)\Scorpions - Live Bites.wav

Peak level 100.0 %
Range quality 100.0 %
Test CRC 6AEA1AB0
Copy CRC 6AEA1AB0
Copy OK

No errors occurred


AccurateRip summary

Track 1 not present in database
Track 2 not present in database
Track 3 not present in database
Track 4 not present in database
Track 5 not present in database
Track 6 not present in database
Track 7 not present in database
Track 8 not present in database
Track 9 not present in database
Track 10 not present in database
Track 11 not present in database
Track 12 not present in database
Track 13 not present in database
Track 14 not present in database
Track 15 not present in database

None of the tracks are present in the AccurateRip database

End of status report

AUDIOCHECKER v2.0 beta (build 457) - by Dester - opdester@freemail.hu
~~~~~~~~~~~~~~~~~~~~~~~~~~~~~~~~~~
-=== DO NOT EDIT THIS FILE! ===-

Path: …\Scorpions - 1995 - Live Bites (2010 Japan SHM-CD)

1 -=- Scorpions - Live Bites.flac -=- CDDA (100%)

197022836

[Verification date: 02.10.2010 22:07:09]
[Disc ID: 0023365c-01922196-c90f9b0f]
Disk not present in database.

Track [ CRC32 ] [W/O NULL] [ LOG ]
– [6AEA1AB0] [0DA89AB8] CRC32
01 [F3670782] [A0FFDCF5]
02 [D2F774EF] [E40CC196]
03 [C63117FE] [7A6B00FD]
04 [9C091543] [81F51407]
05 [81BCDC0C] [B469C790]
06 [80F96EFF] [563732DD]
07 [5764749D] [2E709B23]
08 [54721766] [AA8D99E7]
09 [D495CEDC] [3E14EAD0]
10 [63CFF92A] [D8D32986]
11 [E90F50A2] [95C8FB89]
12 [B8C5A606] [BEF3C709]
13 [70C21182] [4DFD5978]
14 [145A5011] [A217301C]
15 [2D9CC9B6] [7A16EEDB]

Scorpions - Live Bites (1995) [2010, Japan SHM-CD, UICY-94519]

All thanks go to AlexSchl

Download Scorpions - Live Bites (1995):