Tags
Language
Tags

Scorpions - Lovedrive (1979) [Remastered 1997]

Posted By: Andi_Deris
Scorpions - Lovedrive (1979) [Remastered 1997]

Scorpions - Lovedrive (1979) [Remastered 1997]
EAC Rip | FLAC: Image+Cue+Log | MP3 CBR 320 kbps | Scans
272 Mb | 85 Mb | 16 Mb | Time: 36:50
Mercury Records | 314 534 784-2
Hard Rock, Heavy Metal

Lovedrive is the sixth studio album by German band Scorpions, released in 1979. Considered by some critics to be the pinnacle of their career, Lovedrive was a major evolution of the band's sound, exhibiting their "classic style" that would be later developed over their next few albums. Lovedrive cemented the "Scorpions formula" of hard rock songs combined with melodic ballads.

Lovedrive was the band’s first album to be released by Harvest Records in Europe and Mercury Records in the United States and Canada following the band's departure from RCA. It proved to be a major commercial breakthrough, reaching No. 55 on the Billboard Top 200, which none of their previous five albums had dented at all. The RIAA certified the record as Gold on 28 May 1986, and the album also proved a breakthrough in the United Kingdom where it was the first Scorpions album to chart and peaked at No. 36.

Lovedrive ranked No. 25 on IGN's 2007 list of the Top 25 metal albums.

Scorpions - Lovedrive (1979) [Remastered 1997]




Track Listing

01. Loving You Sunday Morning (05:38)
02. Another Piece Of Meat (03:31)
03. Always Somewhere (04:58)
04. Coast To Coast (04:44)
05. Can't Get Enough (02:38)
06. Is There Anybody There? (03:58)
07. Lovedrive (04:52)
08. Holiday (06:32)

Produced by Dieter Dierks

The Band

• Klaus Meine - lead vocals
• Matthias Jabs & Michael Schenker - lead guitar, backing vocals
• Rudolf Schenker - rhythm guitar, backing vocals
• Francis Buchholz - bass, backing vocals
• Herman Rarebell - drums, backing vocals

Notes

20-bit Remastered / STDDSCORP1

Different cover. Space scorpion inside.
"MADE IN USA BY PMDC" in the inner ring of CD


Exact Audio Copy V0.99 prebeta 5 from 4. May 2009

EAC extraction logfile from 18. November 2011, 18:30

Scorpions / Lovedrive (Mercury 314 534 784-2)

Used drive : PLEXTOR DVDR PX-760A Adapter: 0 ID: 0

Read mode : Secure
Utilize accurate stream : Yes
Defeat audio cache : Yes
Make use of C2 pointers : No

Read offset correction : 30
Overread into Lead-In and Lead-Out : No
Fill up missing offset samples with silence : Yes
Delete leading and trailing silent blocks : No
Null samples used in CRC calculations : Yes
Used interface : Native Win32 interface for Win NT & 2000

Used output format : User Defined Encoder
Selected bitrate : 1024 kBit/s
Quality : High
Add ID3 tag : No
Command line compressor : C:\Program Files (x86)\Exact Audio Copy\Flac\flac.exe
Additional command line options : -8 -V %s


TOC of the extracted CD

Track | Start | Length | Start sector | End sector
––––––––––––––––––––––––––––-
1 | 0:00.00 | 5:38.12 | 0 | 25361
2 | 5:38.12 | 3:30.68 | 25362 | 41179
3 | 9:09.05 | 4:57.55 | 41180 | 63509
4 | 14:06.60 | 4:43.32 | 63510 | 84766
5 | 18:50.17 | 2:37.35 | 84767 | 96576
6 | 21:27.52 | 3:57.73 | 96577 | 114424
7 | 25:25.50 | 4:52.25 | 114425 | 136349
8 | 30:18.00 | 6:31.57 | 136350 | 165731


Range status and errors

Selected range

Filename D:\bigggwest\Scorpions\Scorpions - Lovedrive (Mercury 314 534 784-2).wav

Peak level 100.0 %
Range quality 100.0 %
Test CRC 423605DD
Copy CRC 423605DD
Copy OK

No errors occurred


AccurateRip summary

Track 1 accurately ripped (confidence 14) [691980DC]
Track 2 accurately ripped (confidence 13) [BF61A8D8]
Track 3 accurately ripped (confidence 15) [DE7F1FBA]
Track 4 accurately ripped (confidence 13) [D8BA315E]
Track 5 accurately ripped (confidence 15) [DB4537ED]
Track 6 accurately ripped (confidence 15) [A239327D]
Track 7 accurately ripped (confidence 15) [D78049B9]
Track 8 accurately ripped (confidence 14) [9D7BCC53]

All tracks accurately ripped

End of status report


Many thanks to the original uploader: bigggwest


Contraband 1991 Contraband [Japan 1st Press]

Doogie White 2011 As Yet Untitled
Doogie White & La Paz 2012 Granite [Digipak]
Doogie White & La Paz 2013 The Dark And The Light [Digipak]
Doogie White & La Paz 2016 Shut Up And Rawk [Digipak]

The Michael Schenker Group 198...Remastered, Japanese Ed. 2000]
The Michael Schenker Group 1981 MSG [Japan 1st Press, 1986]
The Michael Schenker Group 198...Remastered, Japanese Ed. 2000]
The Michael Schenker Group 1982 Assault Attack [Japan 1st Press, 1986]
The Michael Schenker Group 1982 Assault Attack [Japan (mini LP) 2000]
The Michael Schenker Group 198...(Live) [Japan 1st Press, 1986]
The Michael Schenker Group 198...Remastered, Japanese Ed. 2000]
The Michael Schenker Group 198...(Live) [Japan 1st Press, 1987]
The Michael Schenker Group 201...ve In Tokyo [Japanese Ed.] 2CD
The Michael Schenker Group 201...ears (1980-1984) [5CD Box Set]

Michael Schenker Group 1996 Written In The Sand [Japanese Ed.]
Michael Schenker Group 1999 The Unforgiven
Michael Schenker Group 1999 The Unforgiven [Japanese Ed.]
Michael Schenker Group 2001 Be Aware Of Scorpions [Japanese Ed.]

Michael Schenker 2010 Instrumental Intensity

Michael Schenker's Temple Of Rock 2013 Bridge The Gap [Deluxe Ed.]
Michael Schenker's Temple Of Rock 2013 Bridge The Gap [Japanese Ed.]

McAuley Schenker Group 1987 Perfect Timing [Japan 1st Press]
McAuley Schenker Group 1987 Pe...Remastered, Japanese Ed. 2000]
McAuley Schenker Group 1989 Save Yourself [Japan 1st Press]
McAuley Schenker Group 1989 Sa...Remastered, Japanese Ed. 2000]
McAuley Schenker Group 1991 M.S.G. [Japan 1st Press]
McAuley Schenker Group 1991 M.S.G. [Japanese Ed. 2000]
McAuley Schenker Group 1992 Ni...tic M.S.G. [Japanese Ed. 2000]

Robin McAuley 1999 Business As Usual [Japanese Ed.]

Schenker-Pattison Summit 2004 The Endless Jam
Schenker-Pattison Summit 2005 The Endless Jam Continues

Schugar/Schenker 2003 Under Construction [Japanese Ed. 2009]

Scorpions 1972 Action (titled: Lonesome Crow) [Released 1992]
Scorpions 1974 Fly To The Rainbow [Japan (mini LP) 2007]
Scorpions 1975 In Trance [Japan (mini LP) 2007]
Scorpions 1976 Virgin Killer [Japan (mini LP) 2007]
Scorpions 1977 Taken By Force [Japanese Ed. 1989]
Scorpions 1978 Tokyo Tapes (Japanese Ed. 1995) [2CD]
Scorpions 2007 Live At Wacken Open Air 2006 [DVD]
Scorpions 2011 Live 2011: Get Your Sting & Blackout [2CD]
Scorpions 2015 Return To Forever [Japan, Blu-spec CD2]
Scorpions 2015 Return To Forev...niversary Collector's Box] 3CD

UFO 1977 Lights Out [Japan 1st Press, 1989]
UFO 1982 Mechanix [Japan 1st Press, 1992]
UFO 1985 Misdemeanor [Japan 1st Press, 1992]
UFO 2014 The Complete Studio Albums 1974-1986 [10CD Box Set]
UFO 2015 A Conspiracy Of Stars [Limited Ed. Digipak]




Password: pass