Tags
Language
Tags

Scorpions: Singles Collection part 4 + DVD (2004-2010)

Posted By: v3122
Scorpions: Singles Collection part 4 + DVD (2004-2010)

Scorpions: Singles Collection part 4 + DVD (2004-2010)
EAC | Flac(Image) + Cue + Log & MP3 CBR 320Kbps
4CD | Label: various | ~ 328 or 107 Mb | Scans(jpg) -> 26 Mb
DVD9: NTSC 4:3 (720x480) VBR | Dolby AC3, 2 ch -> 5.66 Gb
Hard Rock

Scorpions is a German rock band formed in 1965 in Hanover by Rudolf Schenker. Since the band's inception, its musical style has ranged from hard rock to heavy metal. The lineup from 1978–92 was the most successful incarnation of the group, and included Klaus Meine (vocals), Rudolf Schenker (rhythm guitar), Matthias Jabs (lead guitar), Francis Buchholz (bass guitar), and Herman Rarebell (drums). The band's only constant member has been Schenker, although Meine has been the lead singer for all of the band's studio albums, and Jabs has been a consistent member since 1979.

During the mid-1970s, with guitarist Uli Jon Roth part of the line-up, the music of the Scorpions was defined as hard rock. After the departure of Roth in 1978, Matthias Jabs joined and, following the guidance of producer Dieter Dierks, the Scorpions changed their sound towards hard rock/heavy metal, mixed with rock power ballads. Throughout the 1980s the group received positive reviews and critical acclaim from music critics, and experienced commercial success with the albums Animal Magnetism (1980), Blackout (1982), Love at First Sting (1984), World Wide Live (1985) and Savage Amusement (1988).

Their best-selling album Crazy World (1990) includes the song "Wind of Change", a symbolic anthem of the political changes in Eastern Europe in the late 1980s and early 1990s and the fall of the Berlin Wall. It is one of the best-selling singles in the world with over fourteen million copies sold. Scorpions have sold over 100 million records in total. They have released 18 studio albums, 27 compilation albums and 74 singles. Six of their singles have reached number one on the charts in different countries. Their albums, singles, compilations and video releases have reached 200 times gold, platinum and multi-platinum status in different countries.

Rolling Stone Magazine described the Scorpions as "the heroes of heavy metal", and MTV called them "Ambassadors of Rock". The band was ranked number 46 on VH1's Greatest Artists of Hard Rock programme, with "Rock You Like a Hurricane" at number 18 on VH1's list of the 100 Greatest Hard Rock Songs. "Still Loving You" ranked 22nd place among the greatest ballads. The Scorpions have received prestigious awards such as three World Music Awards, a star on the Hollywood Rock wall, and a presence in the permanent exhibition of the Rock and Roll Hall of Fame. In 2015 the group celebrated its 50th anniversary…

~ wiki
Scorpions: Singles Collection part 4 + DVD (2004-2010)


Scorpions: Singles Collection part 4 + DVD (2004-2010):

Scorpions: Singles Collection part 4 + DVD (2004-2010)

Tracklist CD1 - 2004 Unbreakable:
BMG, 82876 61239 2

01. Love'em Or Leave'em (4:06)
02. Deep And Dark (3:41)
03. She Said (4:34)
04. Remember The Good Times (4:22)

Exact Audio Copy V1.0 beta 3 from 29. August 2011

Отчёт EAC об извлечении, выполненном 15. ноября 2014, 21:16

Scorpions / Unbreakable (4 Track Sampler)

Дисковод: PIONEER DVD-RW DVR-220L Adapter: 0 ID: 0

Режим чтения : Достоверность
Использование точного потока : Да
Отключение кэша аудио : Да
Использование указателей C2 : Нет

Коррекция смещения при чтении : 6
Способность читать области Lead-in и Lead-out : Нет
Заполнение пропущенных сэмплов тишиной : Да
Удаление блоков с тишиной в начале и конце : Нет
При вычислениях CRC использовались нулевые сэмплы : Да
Интерфейс : Встроенный Win32-интерфейс для Win NT/2000

Выходной формат : Внутренние WAV-операции
Формат сэмплов : 44.100 Гц; 16 бит; стерео


TOC извлечённого CD

Трек | Старт | Длительность | Начальный сектор | Конечный сектор
––––––––––––––––––––––––––––––––––-
1 | 0:00.00 | 4:06.24 | 0 | 18473
2 | 4:06.24 | 3:41.14 | 18474 | 35062
3 | 7:47.38 | 4:34.02 | 35063 | 55614
4 | 12:21.40 | 4:22.19 | 55615 | 75283


Характеристики диапазона извлечения и сообщения об ошибках

Выбранный диапазон

Имя файла D:\Scorpions Collection by mewzik (3)\Promos\2004 - Unbreakable\2004 - Unbreakable (4 Track Sampler).wav

Пиковый уровень 99.9 %
Скорость извлечения 0.8 X
Качество диапазона 100.0 %
CRC теста 7B3F6C77
CRC копии 7B3F6C77
Копирование… OK

Ошибок не произошло


AccurateRip: сводка

Трек 1 отсутствует в базе данных
Трек 2 отсутствует в базе данных
Трек 3 отсутствует в базе данных
Трек 4 отсутствует в базе данных

Ни одного трека нет в базе AccurateRip

Конец отчёта


Scorpions: Singles Collection part 4 + DVD (2004-2010)

Tracklist CD2 - 2004 You Are The Champion:
Sony Music, 675 347 - 2

01. You Are The Champion -3:31
02. You Are The Champion (Instrumental) -3:31
03. M. Kleitman - E Sara Perche -3:12

Отчет EAC об извлечении из 11. Июнь 2009, 16:30 для CD
Scorpions/M. Kleitman / You Are The Champion

Дисковод: _NEC DVD_RW ND-3500AG Adapter: 1 ID: 1
Режим чтения: Точный: C2 - нет, точный поток - да, отключение кэша - да
Коррекция смещения при чтении: 48
Экстрачтение Lead-in и Lead-out : Нет

Выходной формат: Внутренние WAV-операции
44.100 Гц; 16 бит; стерео

Другие параметры:
Заполнять пропущенные сэмплы тишиной : Да
Удалить блоки с тишиной в начале и конце : Нет
Установленный внешний ASPI-интерфейс


Статус диапазона и ошибки
Выбранный диапазон
Имя файла D:\AAAA\1\SCORPS-YATC.wav

Пиковый уровень 98.8 %
Качество диапазона 99.9 %
CRC 014A341C
Копирование… OK

Ошибок не произошло

Конец отчета


Scorpions: Singles Collection part 4 + DVD (2004-2010)

Tracklist CD3 - 2007 Humanity:
Sony BMG, 88697 11004 2

01. Humanity (Radio Edit - Incl. Orchestra) (4:06)
02. Humanity (Radio Edit - Excl. Orchestra) (4:08)

Exact Audio Copy V1.0 beta 3 from 29. August 2011

Отчёт EAC об извлечении, выполненном 15. ноября 2014, 21:26

Scorpions / Humanity

Дисковод: PIONEER DVD-RW DVR-220L Adapter: 0 ID: 0

Режим чтения : Достоверность
Использование точного потока : Да
Отключение кэша аудио : Да
Использование указателей C2 : Нет

Коррекция смещения при чтении : 6
Способность читать области Lead-in и Lead-out : Нет
Заполнение пропущенных сэмплов тишиной : Да
Удаление блоков с тишиной в начале и конце : Нет
При вычислениях CRC использовались нулевые сэмплы : Да
Интерфейс : Встроенный Win32-интерфейс для Win NT/2000

Выходной формат : Внутренние WAV-операции
Формат сэмплов : 44.100 Гц; 16 бит; стерео


TOC извлечённого CD

Трек | Старт | Длительность | Начальный сектор | Конечный сектор
––––––––––––––––––––––––––––––––––-
1 | 0:00.00 | 4:05.45 | 0 | 18419
2 | 4:05.45 | 4:07.43 | 18420 | 36987


Характеристики диапазона извлечения и сообщения об ошибках

Выбранный диапазон

Имя файла D:\Scorpions Collection by mewzik (3)\Promos\2007 - Humanity\2007 - Humanity.wav

Пиковый уровень 98.8 %
Скорость извлечения 5.0 X
Качество диапазона 100.0 %
CRC теста 8651C0C8
CRC копии 8651C0C8
Копирование… OK

Ошибок не произошло


AccurateRip: сводка

Трек 1 : извлечено точно (доверие 1) [F295F60D] (AR v1)
Трек 2 : извлечено точно (доверие 1) [FBA207CA] (AR v1)

Все треки извлечены точно

Конец отчёта


Scorpions: Singles Collection part 4 + DVD (2004-2010)

Tracklist CD4 - 2010 The Good Die Young:
Sony Music,

01. The Good Die Young (Radio Edit) (3:58)
02. The Good Die Young (Album Version) (5:15)

Exact Audio Copy V1.0 beta 3 from 29. August 2011

Отчёт EAC об извлечении, выполненном 14. ноября 2014, 20:37

Scorpions / The Good Die Young

Дисковод: PIONEER DVD-RW DVR-220L Adapter: 0 ID: 0

Режим чтения : Достоверность
Использование точного потока : Да
Отключение кэша аудио : Да
Использование указателей C2 : Нет

Коррекция смещения при чтении : 6
Способность читать области Lead-in и Lead-out : Нет
Заполнение пропущенных сэмплов тишиной : Да
Удаление блоков с тишиной в начале и конце : Нет
При вычислениях CRC использовались нулевые сэмплы : Да
Интерфейс : Встроенный Win32-интерфейс для Win NT/2000

Выходной формат : Внутренние WAV-операции
Формат сэмплов : 44.100 Гц; 16 бит; стерео


TOC извлечённого CD

Трек | Старт | Длительность | Начальный сектор | Конечный сектор
––––––––––––––––––––––––––––––––––-
1 | 0:00.00 | 3:58.14 | 0 | 17863
2 | 3:58.14 | 5:14.38 | 17864 | 41451


Характеристики диапазона извлечения и сообщения об ошибках

Выбранный диапазон

Имя файла D:\Scorpions Collection by mewzik (3)\Promos\2010 - The Good Die Young\2010 - The Good Die Young.wav

Пиковый уровень 100.0 %
Скорость извлечения 0.8 X
Качество диапазона 100.0 %
CRC теста 654E8517
CRC копии 654E8517
Копирование… OK

Ошибок не произошло


AccurateRip: сводка

Трек 1 отсутствует в базе данных
Трек 2 отсутствует в базе данных

Ни одного трека нет в базе AccurateRip

Конец отчёта


Scorpions: Singles Collection part 4 + DVD (2004-2010)

Tracklist DVD - 2010 The Videos:

1.Humanity
2.You & I
3.Alien Nation
4.Believe in Love (russian version)
5.Big City Night
6.Don't Believe Her
7.Here in My Heart
8.Hollyday
9.Hurricane
10.I Can't Explain
11.I'm Leaving You
12.Moment of Glory
13.No One Like You (live version)
14.Passion Rules the Game
15.Rhythm of Love (uncensored version)
16.Rock You Like a Hurricane (original version)
17.Send Me an Angel
18.Still Loving You
19.No One Like You
20.Tease Me,Please Me
21.Under the Same Sun
22.Walking On the Edge (russian version)
23.When Love Kills Love (acoustica)
24.Wind of Change
25.Rock You Like a Hurricane (russian version)
26.A Moment in a Million Years
27.Hurricane 2001
28.Send Me an Angel (acoustica)
29.When Love Kills Love (rehearsal edit)

Title: Scorpions_The Videos
Size: 5.26 Gb ( 5 517 970,00 KBytes ) - DVD-9
Enabled regions: 1, 2, 3, 4, 5, 6, 7, 8

VTS_01 :
Play Length: 01:52:17
Video: NTSC 4:3 (720x480) VBR
Audio:
English (Dolby AC3, 2 ch)

VTS_02 :
Play Length: 00:04:25+00:05:08+00:04:15
Video: NTSC 16:9 (720x480) VBR, Auto Letterboxed
Audio:
English (Dolby AC3, 2 ch)


Scorpions: Singles Collection part 4 + DVD (2004-2010)

Scorpions: Singles Collection part 4 + DVD (2004-2010)

Scorpions: Singles Collection part 4 + DVD (2004-2010)

Scorpions: Singles Collection part 4 + DVD (2004-2010)

All thanks go to the original releasers

Scorpions in my Blog

Download Scorpions: Singles Collection part 4 + DVD (2004-2010):