Subcategories

Sea Of Sin - Future Pulse (2018)

Posted By: gribovar
Sea Of Sin - Future Pulse (2018)

Sea Of Sin - Future Pulse (2018)
EAC Rip | FLAC (image+.cue+log) - 322 MB | MP3 CBR 320 kbps (LAME 3.93) - 126 MB | Covers (7 MB) included
Genre: Synthpop | RAR 3% Rec. | Label: Self-released

German Synthpop Band Sea Of Sin is back! In 2018 they have released their comeback album "Future Pulse" and the Singles "Star" and "Beyond Sadness" reaching Top 10 placements in DAC (Deutsche Alternative Charts) and GEWC (German Electronic Web Charts).
Sea Of Sin has been active since the 1990s. First album ‘Watch Out!’ was published 1995 containing 15 Synth Pop tracks such as ‘Last Day In Paradise’ and ‘I Live My Life’. Follow up EP ‘Illuminate’ was published 1997 and produced by Heiko Maile of ‘Camouflage’. Now they are back! Klaus aka Chevy Baccole, who has been producing remixes for ‘Camouflage’ and ‘The New Division’ in the last 2 years, lately has been working on ee-edits of the most successful tracks re-producing them from scratch in his studio in Hamburg. After first digital releases they decided to publish a new CD ‘Future Pulse’ containing 11 tracks, featuring 10 re-edits and one new song ‘Star’.
Though some of the songs show a totally new appearance the reworked versions still contain the initial strengths of ‘Sea Of Sin’ and the original tracks: atmospheric and melodic Electro Pop songs all sharing a melancholic touch. Yet the soundscape is organic and a logical development which transfers the Songs well in the year 2018.
Tracklist:
01. I Live My Life
02. Truth
03. Hold On To Your Dreams
04. Closer To Sin
05. Deep Inside
06. Ride The Sky
07. Star
08. Afterworld
09. Beyond Sadness
10. Last Day In Paradise
11. Strange Vibrations

Total time: 45:41

Exact Audio Copy V1.3 from 2. September 2016

EAC extraction logfile from 21. May 2018, 21:54

Sea Of Sin / Future Pulse

Used drive : PLEXTOR BDDVDR PX-B320SA Adapter: 4 ID: 0

Read mode : Secure
Utilize accurate stream : Yes
Defeat audio cache : Yes
Make use of C2 pointers : No

Read offset correction : 6
Overread into Lead-In and Lead-Out : No
Fill up missing offset samples with silence : Yes
Delete leading and trailing silent blocks : No
Null samples used in CRC calculations : Yes
Used interface : Installed external ASPI interface

Used output format : User Defined Encoder
Selected bitrate : 896 kBit/s
Quality : High
Add ID3 tag : No
Command line compressor : C:\Program Files\FLAC\flac.exe
Additional command line options : -V -8 -T "COMMENT=ripped by DmXpert special for new-team.org" -T "Date=%year%" -T "Genre=%genre%" %source%


TOC of the extracted CD

Track | Start | Length | Start sector | End sector
––––––––––––––––––––––––––––-
1 | 0:00.00 | 4:24.06 | 0 | 19805
2 | 4:24.06 | 3:42.43 | 19806 | 36498
3 | 8:06.49 | 4:30.12 | 36499 | 56760
4 | 12:36.61 | 3:41.60 | 56761 | 73395
5 | 16:18.46 | 3:54.64 | 73396 | 91009
6 | 20:13.35 | 4:24.52 | 91010 | 110861
7 | 24:38.12 | 4:07.53 | 110862 | 129439
8 | 28:45.65 | 4:12.68 | 129440 | 148407
9 | 32:58.58 | 4:44.50 | 148408 | 169757
10 | 37:43.33 | 4:42.15 | 169758 | 190922
11 | 42:25.48 | 3:15.30 | 190923 | 205577


Range status and errors

Selected range

Filename Y:\DmXpert\Sea Of Sin - Future Pulse (2018)\Sea Of Sin - Future Pulse.wav

Peak level 96.9 %
Extraction speed 7.1 X
Range quality 100.0 %
Test CRC 45702A77
Copy CRC 45702A77
Copy OK

No errors occurred


AccurateRip summary

Track 1 not present in database
Track 2 not present in database
Track 3 not present in database
Track 4 not present in database
Track 5 not present in database
Track 6 not present in database
Track 7 not present in database
Track 8 not present in database
Track 9 not present in database
Track 10 not present in database
Track 11 not present in database

None of the tracks are present in the AccurateRip database

End of status report

==== Log checksum 43EBEDD3C52EDCD24596D68332B10524DB05DCA6E8FAAD154464F78D990E702C ====

[CUETools log; Date: 08.08.2019 18:25:58; Version: 2.1.4]
[CTDB TOCID: UDA0u1AIy5Ff7CbJ8xI3l9nWo50-] found.
Track | CTDB Status
1 | (7/7) Accurately ripped
2 | (7/7) Accurately ripped
3 | (7/7) Accurately ripped
4 | (7/7) Accurately ripped
5 | (7/7) Accurately ripped
6 | (7/7) Accurately ripped
7 | (7/7) Accurately ripped
8 | (7/7) Accurately ripped
9 | (7/7) Accurately ripped
10 | (7/7) Accurately ripped
11 | (7/7) Accurately ripped
[AccurateRip ID: 0012ce39-00a34921-a30ab50b] found.
Track [ CRC | V2 ] Status
01 [91cb1bd7|c7e840c5] (0+5/5) Accurately ripped
02 [3cfb35d7|c7924e93] (0+5/5) Accurately ripped
03 [350823f4|8ff10531] (0+5/5) Accurately ripped
04 [146e9cdc|85e60919] (0+5/5) Accurately ripped
05 [13b4c746|0b6cc588] (0+5/5) Accurately ripped
06 [04063794|6e94a5f5] (0+5/5) Accurately ripped
07 [43acbdcf|eb2d7c8a] (0+5/5) Accurately ripped
08 [f22a6393|5d16bad0] (0+5/5) Accurately ripped
09 [e53a6898|413b882e] (0+5/5) Accurately ripped
10 [0396d504|594d786e] (0+5/5) Accurately ripped
11 [1540fa23|b28b014d] (0+5/5) Accurately ripped

Track Peak [ CRC32 ] [W/O NULL] [ LOG ]
– 96,9 [45702A77] [E24B4467] CRC32
01 96,9 [EE968A36] [34BEA9A0]
02 96,9 [FF7D3931] [D4C955BD]
03 96,9 [B6DDFF81] [D0F1E59D]
04 96,9 [0D0B9A7A] [C621090F]
05 96,9 [639D5D5A] [9648BDF5]
06 96,9 [47A59E7A] [C85915C0]
07 96,9 [A9A5FBD5] [6EB90355]
08 96,9 [3278712D] [68483753]
09 96,9 [7EB9CE5B] [D51F6832]
10 96,9 [9997E34A] [ED61BFBA]
11 96,9 [8DE781D7] [46879F91]

Thanks to DmXpert

See also:
Sea Of Sin - Unbroken (2019)