Subcategories

Seiji Ozawa, Mito Chamber Orchestra - Beethoven: Symphony No.9 (2018)

Posted By: ArlegZ
Seiji Ozawa, Mito Chamber Orchestra - Beethoven: Symphony No.9 (2018)

Seiji Ozawa, Mito Chamber Orchestra - Beethoven: Symphony No.9 (2018)
EAC | FLAC | Image (Cue & Log) ~ 296 Mb | Total time: 68:39 | Scans included
Classical | Label: Decca | # 483 4431 | Recorded: 2017

45 years after his debut Philips recording of Beethoven’s 9th, Seiji Ozawa returns to this epic masterpiece. The Mito Chamber Orchestra features many international star players including Radek Baborák (horn), Ricardo Morales (clarinet) and Philippe Tondre (oboe). The German baritone Markus Eiche leads a quartet of leading Japanese soloists and the Tokyo Opera Singers in a fascinating performance on a chamber orchestra scale.

Performer:
Rie Miyake, soprano
Mihoko Fujimura, mezzo-soprano
Kei Fukui, tenor
Markus Eiche, baritone
Tokyo Opera Singers
Mito Chamber Orchestra
Seiji Ozawa, conductor

Track List:
Symphony No. 9 in D minor, Op. 125 'Choral'
01. 1. Allegro ma non troppo, un poco maestoso
02. 2. Molto vivace
03. 3. Adagio molto e cantabile
04. 4a. Finale: Presto
05. 4b. Allegro assai
06. 4c. Presto - "O Freunde nicht diese Töne" -
07. 4d. Alla marcia (Allegro vivace assai)
08. 4e. Andante maestoso
09. 4f. Allegro energico e sempre ben marcato
10. 4g. Allegro ma non tanto
11. 4h. Poco allegro, stringendo il tempo, sempre più allegro - Presto


Exact Audio Copy V1.3 from 2. September 2016

EAC extraction logfile from 9. January 2020, 18:27

Seiji Ozawa / Beethoven - Symphony no. 9 in D minor, op. 125

Used drive : HL-DT-STBD-RE WH16NS40 Adapter: 1 ID: 0

Read mode : Secure
Utilize accurate stream : Yes
Defeat audio cache : Yes
Make use of C2 pointers : No

Read offset correction : 6
Overread into Lead-In and Lead-Out : No
Fill up missing offset samples with silence : Yes
Delete leading and trailing silent blocks : No
Null samples used in CRC calculations : Yes
Used interface : Native Win32 interface for Win NT & 2000

Used output format : User Defined Encoder
Selected bitrate : 1024 kBit/s
Quality : High
Add ID3 tag : No
Command line compressor : C:\Program Files (x86)\Exact Audio Copy\FLAC\FLAC.EXE
Additional command line options : -6 -V -T "ARTIST=%artist%" -T "TITLE=%title%" -T "ALBUM=%albumtitle%" -T "DATE=%year%" -T "TRACKNUMBER=%tracknr%" -T "GENRE=%genre%" -T "COMMENT=%comment%" -T "BAND=%albuminterpret%" -T "ALBUMARTIST=%albuminterpret%" -T "COMPOSER=%composer%" %haslyrics%–tag-from-file=LYRICS="%lyricsfile%"%haslyrics% -T "DISCNUMBER=%cdnumber%" -T "TOTALDISCS=%totalcds%" -T "TOTALTRACKS=%numtracks%" %hascover%–picture="%coverfile%"%hascover% %source% -o %dest%


TOC of the extracted CD

Track | Start | Length | Start sector | End sector
––––––––––––––––––––––––––––-
1 | 0:00.00 | 16:41.59 | 0 | 75133
2 | 16:41.59 | 11:57.17 | 75134 | 128925
3 | 28:39.01 | 14:56.51 | 128926 | 196176
4 | 43:35.52 | 3:09.43 | 196177 | 210394
5 | 46:45.20 | 3:40.40 | 210395 | 226934
6 | 50:25.60 | 3:39.08 | 226935 | 243367
7 | 54:04.68 | 4:16.55 | 243368 | 262622
8 | 58:21.48 | 3:27.46 | 262623 | 278193
9 | 61:49.19 | 2:19.14 | 278194 | 288632
10 | 64:08.33 | 2:28.54 | 288633 | 299786
11 | 66:37.12 | 2:00.37 | 299787 | 308823


Range status and errors

Selected range

Filename C:\Users\Grant\Desktop\Seiji Ozawa - Beethoven - Symphony no. 9 in D minor, op. 125.wav

Peak level 99.9 %
Extraction speed 8.6 X
Range quality 100.0 %
Test CRC AFE80861
Copy CRC AFE80861
Copy OK

No errors occurred


AccurateRip summary

Track 1 accurately ripped (confidence 7) [1FC2A7BA] (AR v2)
Track 2 accurately ripped (confidence 7) [25702D41] (AR v2)
Track 3 accurately ripped (confidence 7) [6E2B9B03] (AR v2)
Track 4 accurately ripped (confidence 7) [5EE10EC3] (AR v2)
Track 5 accurately ripped (confidence 7) [E2FD626C] (AR v2)
Track 6 accurately ripped (confidence 7) [AB327E45] (AR v2)
Track 7 accurately ripped (confidence 7) [E1908DB7] (AR v2)
Track 8 accurately ripped (confidence 7) [EFB041B0] (AR v2)
Track 9 accurately ripped (confidence 7) [E7C7C4DC] (AR v2)
Track 10 accurately ripped (confidence 7) [33E2AF90] (AR v2)
Track 11 accurately ripped (confidence 7) [10D09B12] (AR v2)

All tracks accurately ripped

End of status report

–– CUETools DB Plugin V2.1.6

[CTDB TOCID: lu1gzkaAetkZBxzl0g2MmqT45gk-] found
Submit result: lu1gzkaAetkZBxzl0g2MmqT45gk- has been confirmed
Track | CTDB Status
1 | (32/32) Accurately ripped
2 | (32/32) Accurately ripped
3 | (31/32) Accurately ripped
4 | (32/32) Accurately ripped
5 | (32/32) Accurately ripped
6 | (32/32) Accurately ripped
7 | (32/32) Accurately ripped
8 | (32/32) Accurately ripped
9 | (32/32) Accurately ripped
10 | (32/32) Accurately ripped
11 | (32/32) Accurately ripped


==== Log checksum A62B5CEFB5D26F4B9D4CE01F51A2C84C24CD6EC688B558113BCB4B38E9E5FE59 ====

Seiji Ozawa, Mito Chamber Orchestra - Beethoven: Symphony No.9 (2018)

Thanks to the original releaser