Subcategories

Sekou Bunch - Sekou (1991/2012) {Audiophile Productions}

Posted By: tiburon
Sekou Bunch - Sekou (1991/2012) {Audiophile Productions}

Sekou Bunch - Sekou (1991/2012) {Audiophile Productions}
DSD64 | Weiss Saracon | FLAC tracks | Digital Booklet | 360MB + 5% Recovery
MP3 CBR 320 Kbps | 149MB + 5% Recovery
Genre: Jazz, Funk, Soul

Sekou Bunch is a world renowned musician and bassist. Born and raised in New York City, Sekou Bunch was exposed to the arts, virtually from the very beginning. Thirty plus years in the trenches providing the rock solid backbone for some of the brightest stars in the business; Michael Jackson, Anita Baker, Luther Vandross, George Benson, Whitney Houston, Lionel Richie, Roger Daltrey and Marc Anthony to name a few has provided Bunch rich opportunity to draw influence from rock, jazz and R&B.
Track List
01 - Catano
02 - Pastels
03 - Night On The Town
04 - As A Matter Of Fact
05 - What? Mr. Bunch
06 - Dolphin Dance
07 - Seven Steps To Heaven
08 - Footprints
09 - Let's Jam
10 - Naima
11 - Day In The Sahara

musicians
Sekou Bunch - bass,fretless bass
Doc Powell - guitar
Bill Summers - percussion
Karen Briggs - violin
Rayford Griffin - drums
Jim Oppenheim - saxophone
Keith Fiddmont - saxophone
Nick Smith - piano
Tom MacMorran - piano
Kevin Turner - guitar
Nolan Smith - trumpet
Vince Wilburn - drums
Terri-Lynne Carrington - drums
Nenge Hernandez - percussion
Richard Requeri - precision
Keith Jones - fretless bass, tenor bass, fretless bass

Produced by David Manley


AUDIOCHECKER v2.0 beta (build 457) - by Dester - opdester@freemail.hu
~~~~~~~~~~~~~~~~~~~~~~~~~~~~~~~~~~
-=== DO NOT EDIT THIS FILE! ===-

Path: …\Sekou Bunch - Sekou (1991) [FLAC]

01 -=- 01. Catano.flac -=- CDDA (100%)
02 -=- 02. Pastels.flac -=- CDDA (100%)
03 -=- 03. Night On The Town.flac -=- CDDA (100%)
04 -=- 04. As A Matter Of Fact.flac -=- CDDA (100%)
05 -=- 05. What Mr. Bunch.flac -=- CDDA (100%)
06 -=- 06. Dolphin Dance.flac -=- CDDA (100%)
07 -=- 07. Seven Steps To Heaven.flac -=- CDDA (100%)
08 -=- 08. Footprints.flac -=- CDDA (100%)
09 -=- 09. Let's Jam.flac -=- CDDA (100%)
10 -=- 10. Naima.flac -=- CDDA (100%)
11 -=- 11. Day In The Sahara.flac -=- CDDA (100%)

Summary 100,00% CDDA

25997604


foobar2000 1.3.13 / Dynamic Range Meter 1.1.1
log date: 2020-03-29 22:55:52

––––––––––––––––––––––––––––––––––––––––
Analyzed: Sekou Bunch / Sekou
––––––––––––––––––––––––––––––––––––––––

DR Peak RMS Duration Track
––––––––––––––––––––––––––––––––––––––––
DR15 -0.29 dB -18.58 dB 4:51 01-Catano
DR16 -1.62 dB -20.35 dB 6:28 02-Pastels
DR17 -0.09 dB -21.29 dB 5:36 03-Night On The Town
DR15 -2.85 dB -22.97 dB 6:49 04-As A Matter Of Fact
DR17 -1.91 dB -26.04 dB 5:19 05-What? Mr. Bunch
DR17 -1.68 dB -23.92 dB 6:20 06-Dolphin Dance
DR16 -0.03 dB -23.46 dB 6:17 07-Seven Steps To Heaven
DR15 -0.20 dB -18.76 dB 7:13 08-Footprints
DR15 -0.55 dB -17.74 dB 1:41 09-Let's Jam
DR16 -0.12 dB -21.47 dB 4:45 10-Naima
DR17 -0.39 dB -22.13 dB 9:27 11-Day In The Sahara
––––––––––––––––––––––––––––––––––––––––

Number of tracks: 11
Official DR value: DR16

Samplerate: 44100 Hz
Channels: 2
Bits per sample: 16
Bitrate: 687 kbps
Codec: FLAC
================================================================================


Thanks to the original customer