Subcategories

Sergio Mendes - Brasil '86 (1986) {A&M}

Posted By: tiburon
Sergio Mendes - Brasil '86 (1986) {A&M}

Sergio Mendes - Brasil '86 (1986) {A&M}
EAC 1.0b3 | FLAC tracks level 8 | Cue+Log+M3U | Full Scans 300dpi | 229MB + 5% Recovery
MP3 CBR 320 Kbps | 90MB + 5% Recovery
Genre: Jazz, Funk, Soul, Latin
Sergio Mendes - Brasil '86 (1986) {A&M}

A 1986 A&M album featuring a mix of Mendes' trademark Brazilian pop with vocals by Siedah Garrett and Joe Pizzulo, a traditional Brazilian styled tune "O Rio" (featuring the great Dori Caymmi on guitar and vocals), and a guest appearance by former Brasil '66 lead singer Lani Hall on "No Place To Hide".
Track List
01. Daylight
02. Take This Love
03. What Do We Mean To Each Other
04. Your Smile
05. The River (O Rio)
06. Nonstop
07. It Hurts A Whole Lot More
08. Flower Of Bahia (Flor Da Bahia)
09. No Place To Hide
10. Here Where I Belong

musicians
Sergio Mendes - Piano, Keyboards, Sinclavier, Compositions
Nathan East - Bass
Alphonso Johnson - Bass
Jeff Porcaro - Drums
Paulinho Da Costa - Percussions
Gracinha Leporace - Vocals
Siedah Garrett - Vocals
Lani Hall - Vocals
Joe Pizzulo - Vocals
Dori Caymmi - Vocals, Acoustic Guitar
Peter Wolf - Keyboards, Sinclavier, Compositions
Michael McDonald - backing vocals
Dann Huff - Guitars
Ernie Watts - Saxophone
Maxine Willard Waters - vocals
Phil Perry - backing vocals
Lisa Bevill - vocals
Robin Beck - backing vocals

Produced by Sergio Mendes and Peter Wolf


Exact Audio Copy V1.0 beta 3 from 29. August 2011

EAC extraction logfile from 5. November 2013, 22:38

Sergio Mendes / Brasil '86

Used drive : HL-DT-STDVDRAM GT70N Adapter: 0 ID: 0

Read mode : Secure
Utilize accurate stream : Yes
Defeat audio cache : Yes
Make use of C2 pointers : No

Read offset correction : 103
Overread into Lead-In and Lead-Out : No
Fill up missing offset samples with silence : Yes
Delete leading and trailing silent blocks : No
Null samples used in CRC calculations : Yes
Used interface : Native Win32 interface for Win NT & 2000
Gap handling : Appended to previous track

Used output format : User Defined Encoder
Selected bitrate : 1024 kBit/s
Quality : High
Add ID3 tag : No
Command line compressor : C:\Program Files (x86)\Exact Audio Copy\FLAC\FLAC.EXE
Additional command line options : -8 -V -T "ARTIST=%artist%" -T "TITLE=%title%" -T "ALBUM=%albumtitle%" -T "DATE=%year%" -T "TRACKNUMBER=%tracknr%" -T "GENRE=%genre%" -T "PERFORMER=%albuminterpret%" -T "COMPOSER=%composer%" %haslyrics%–tag-from-file=LYRICS="%lyricsfile%"%haslyrics% -T "ALBUMARTIST=%albumartist%" -T "DISCNUMBER=%cdnumber%" -T "TOTALDISCS=%totalcds%" -T "TOTALTRACKS=%numtracks%" -T "COMMENT=%comment%" %source% -o %dest%


TOC of the extracted CD

Track | Start | Length | Start sector | End sector
––––––––––––––––––––––––––––-
1 | 0:00.00 | 4:34.08 | 0 | 20557
2 | 4:34.08 | 4:23.70 | 20558 | 40352
3 | 8:58.03 | 4:37.65 | 40353 | 61192
4 | 13:35.68 | 3:33.10 | 61193 | 77177
5 | 17:09.03 | 2:38.12 | 77178 | 89039
6 | 19:47.15 | 3:23.73 | 89040 | 104337
7 | 23:11.13 | 4:14.05 | 104338 | 123392
8 | 27:25.18 | 4:21.62 | 123393 | 143029
9 | 31:47.05 | 2:53.70 | 143030 | 156074
10 | 34:41.00 | 2:20.40 | 156075 | 166614


Track 1

Filename E:\Rips\Sergio Mendes - Brasil '86\01 - Daylight.wav

Pre-gap length 0:00:02.00

Peak level 79.1 %
Extraction speed 3.0 X
Track quality 100.0 %
Test CRC 46BC504C
Copy CRC 46BC504C
Accurately ripped (confidence 2) [D569F637] (AR v1)
Copy OK

Track 2

Filename E:\Rips\Sergio Mendes - Brasil '86\02 - Take This Love.wav

Peak level 89.2 %
Extraction speed 2.8 X
Track quality 99.9 %
Test CRC 586972CD
Copy CRC 586972CD
Accurately ripped (confidence 2) [2375B76B] (AR v1)
Copy OK

Track 3

Filename E:\Rips\Sergio Mendes - Brasil '86\03 - What Do We Mean to Each Other.wav

Pre-gap length 0:00:03.24

Peak level 76.4 %
Extraction speed 3.0 X
Track quality 99.9 %
Test CRC F4B7E9BE
Copy CRC F4B7E9BE
Accurately ripped (confidence 2) [91EEA67A] (AR v1)
Copy OK

Track 4

Filename E:\Rips\Sergio Mendes - Brasil '86\04 - Your Smile.wav

Pre-gap length 0:00:01.50

Peak level 69.3 %
Extraction speed 3.0 X
Track quality 99.9 %
Test CRC 14B81996
Copy CRC 14B81996
Accurately ripped (confidence 2) [F77B009B] (AR v1)
Copy OK

Track 5

Filename E:\Rips\Sergio Mendes - Brasil '86\05 - The River (O Rio).wav

Pre-gap length 0:00:01.13

Peak level 49.1 %
Extraction speed 3.8 X
Track quality 100.0 %
Test CRC 1868D9D8
Copy CRC 1868D9D8
Accurately ripped (confidence 2) [620403BC] (AR v1)
Copy OK

Track 6

Filename E:\Rips\Sergio Mendes - Brasil '86\06 - Nonstop.wav

Pre-gap length 0:00:02.73

Peak level 72.6 %
Extraction speed 4.1 X
Track quality 100.0 %
Test CRC 729214D2
Copy CRC 729214D2
Accurately ripped (confidence 2) [5E028246] (AR v1)
Copy OK

Track 7

Filename E:\Rips\Sergio Mendes - Brasil '86\07 - It Hurts a Whole Lot More.wav

Pre-gap length 0:00:02.00

Peak level 71.6 %
Extraction speed 4.4 X
Track quality 100.0 %
Test CRC 3C21CB16
Copy CRC 3C21CB16
Accurately ripped (confidence 2) [7874A764] (AR v1)
Copy OK

Track 8

Filename E:\Rips\Sergio Mendes - Brasil '86\08 - Flower Of Bahia.wav

Pre-gap length 0:00:00.93

Peak level 80.0 %
Extraction speed 4.6 X
Track quality 100.0 %
Test CRC 4E4DF4E6
Copy CRC 4E4DF4E6
Accurately ripped (confidence 2) [F49D1B8F] (AR v1)
Copy OK

Track 9

Filename E:\Rips\Sergio Mendes - Brasil '86\09 - No Place to Hide.wav

Pre-gap length 0:00:00.80

Peak level 69.3 %
Extraction speed 3.4 X
Track quality 99.9 %
Test CRC 440CAB45
Copy CRC 440CAB45
Accurately ripped (confidence 2) [EDC9ADA8] (AR v1)
Copy OK

Track 10

Filename E:\Rips\Sergio Mendes - Brasil '86\10 - Here Where I Belong.wav

Peak level 48.9 %
Extraction speed 4.4 X
Track quality 100.0 %
Test CRC 6569F71E
Copy CRC 6569F71E
Accurately ripped (confidence 2) [62B45611] (AR v1)
Copy OK


All tracks accurately ripped

No errors occurred

End of status report

==== Log checksum B7392DB5A699C7AFEC6F56A17E4F76039284820478EC14A93A0D723F41FFE13A ====


––––––––––––––––––––––––––––––––––––––––
Analyzed: Sergio Mendes / Brasil '86
––––––––––––––––––––––––––––––––––––––––

DR Peak RMS Duration Track
––––––––––––––––––––––––––––––––––––––––
DR13 -2.03 dB -17.21 dB 4:34 01-Daylight
DR12 -0.99 dB -16.33 dB 4:24 02-Take This Love
DR13 -2.34 dB -17.57 dB 4:38 03-What Do We Mean to Each Other
DR13 -3.18 dB -18.34 dB 3:33 04-Your Smile
DR10 -6.17 dB -19.04 dB 2:38 05-The River (O Rio)
DR12 -2.78 dB -16.08 dB 3:24 06-Nonstop
DR12 -2.90 dB -16.71 dB 4:14 07-It Hurts a Whole Lot More
DR13 -1.93 dB -18.20 dB 4:22 08-Flower Of Bahia
DR13 -3.19 dB -18.99 dB 2:54 09-No Place to Hide
DR11 -6.21 dB -20.37 dB 2:21 10-Here Where I Belong
––––––––––––––––––––––––––––––––––––––––

Number of tracks: 10
Official DR value: DR12

Samplerate: 44100 Hz
Channels: 2
Bits per sample: 16
Bitrate: 659 kbps
Codec: FLAC
================================================================================

Sergio Mendes - Brasil '86 (1986) {A&M}
Sergio Mendes - Brasil '86 (1986) {A&M}
Sergio Mendes - Brasil '86 (1986) {A&M}


Thanks to the original ripper