Tags
Language
Tags
June 2024
Su Mo Tu We Th Fr Sa
26 27 28 29 30 31 1
2 3 4 5 6 7 8
9 10 11 12 13 14 15
16 17 18 19 20 21 22
23 24 25 26 27 28 29
30 1 2 3 4 5 6

Shania Twain - Queen Of Me (2023)

Posted By: Rtax
Shania Twain - Queen Of Me (2023)

Shania Twain - Queen Of Me (2023)
XLD Rip | FLAC (tracks, cue, log) - 272 MB
36:21 | Pop Rock, Country, Country Pop | Label: EMI

Geared up for another monumental chapter, five-time Grammy Award-winning legend and the best-selling female artist in country music history releases 'Queen of Me' on February 3, 2023. It notably stands out as Shania's sixth original full-length offering, first record since 2017, and official debut for her new label partner Republic Nashville, a division of Republic Records. She excitedly heralds the highly anticipated album with a song entitled 'Last Day of Summer'. The track unfolds as a nostalgic and cinematic anthem set in the final moments of everyone's favourite season. Delicate guitar melts into a steady beat and big screen-worthy strings as she nostalgically recalls, 'The last time we were together the first thing I remember every time September comes'. Shania will make it feel like summer forever, like only she can.

Tracklist
1 Giddy Up!
2 Brand New
3 Waking Up Dreaming
4 Best Friend
5 Pretty Liar
6 Inhale/Exhale Air
7 Last Day of Summer
8 Queen of Me
9 Got It Good
10 Number One
11 Not Just a Girl
12 The Hardest Stone
X Lossless Decoder version 20181019 (151.1)

XLD extraction logfile from 2023-02-10 12:19:31 -0500

Shania Twain / Queen Of Me

Used drive : HL-DT-ST DVDRAM GP65NS60 (revision PF00)
Media type : Pressed CD

Ripper mode : XLD Secure Ripper
Disable audio cache : OK for the drive with a cache less than 1375KiB
Make use of C2 pointers : NO
Read offset correction : 6
Max retry count : 100
Gap status : Analyzed, Appended (except HTOA)

TOC of the extracted CD
Track | Start | Length | Start sector | End sector
––––––––––––––––––––––––––––-
1 | 00:00:00 | 02:42:49 | 0 | 12198
2 | 02:42:49 | 02:33:74 | 12199 | 23747
3 | 05:16:48 | 03:18:60 | 23748 | 38657
4 | 08:35:33 | 02:39:29 | 38658 | 50611
5 | 11:14:62 | 02:39:19 | 50612 | 62555
6 | 13:54:06 | 03:18:25 | 62556 | 77430
7 | 17:12:31 | 03:10:21 | 77431 | 91701
8 | 20:22:52 | 02:58:07 | 91702 | 105058
9 | 23:20:59 | 02:53:09 | 105059 | 118042
10 | 26:13:68 | 03:21:03 | 118043 | 133120
11 | 29:34:71 | 03:10:66 | 133121 | 147436
12 | 32:45:62 | 03:39:64 | 147437 | 163925

AccurateRip Summary
Disc not found in AccurateRip DB.

All Tracks
Album gain : -11.20 dB
Peak : 0.999969
Statistics
Read error : 0
Jitter error (maybe fixed) : 0
Retry sector count : 0
Damaged sector count : 0

Track 01
Filename : /Users/mydrive/Music/Shania Twain - Queen Of Me (2023) [FLAC]/01 Giddy Up.flac
Pre-gap length : 00:02:00

Track gain : -12.41 dB
Peak : 0.999969
CRC32 hash (test run) : BDA3B287
CRC32 hash : BDA3B287
CRC32 hash (skip zero) : 45A555D3
AccurateRip v1 signature : 3F79CA42
AccurateRip v2 signature : 5DBA9976
->Track not present in AccurateRip database.
Statistics
Read error : 0
Jitter error (maybe fixed) : 0
Retry sector count : 0
Damaged sector count : 0

Track 02
Filename : /Users/mydrive/Music/Shania Twain - Queen Of Me (2023) [FLAC]/02 Brand New.flac

Track gain : -12.23 dB
Peak : 0.999969
CRC32 hash (test run) : A524D5E2
CRC32 hash : A524D5E2
CRC32 hash (skip zero) : B90FBB7E
AccurateRip v1 signature : 7059EF70
AccurateRip v2 signature : 87F8FD5E
->Track not present in AccurateRip database.
Statistics
Read error : 0
Jitter error (maybe fixed) : 0
Retry sector count : 0
Damaged sector count : 0

Track 03
Filename : /Users/mydrive/Music/Shania Twain - Queen Of Me (2023) [FLAC]/03 Waking Up Dreaming.flac

Track gain : -11.71 dB
Peak : 0.999969
CRC32 hash (test run) : AB41E50F
CRC32 hash : AB41E50F
CRC32 hash (skip zero) : 73DA9A6F
AccurateRip v1 signature : 27CC7B32
AccurateRip v2 signature : 86B7E8E6
->Track not present in AccurateRip database.
Statistics
Read error : 0
Jitter error (maybe fixed) : 0
Retry sector count : 0
Damaged sector count : 0

Track 04
Filename : /Users/mydrive/Music/Shania Twain - Queen Of Me (2023) [FLAC]/04 Best Friend.flac

Track gain : -10.95 dB
Peak : 0.999969
CRC32 hash (test run) : E4724814
CRC32 hash : E4724814
CRC32 hash (skip zero) : DB9ABE9B
AccurateRip v1 signature : 41178862
AccurateRip v2 signature : 4F08F8BD
->Track not present in AccurateRip database.
Statistics
Read error : 0
Jitter error (maybe fixed) : 0
Retry sector count : 0
Damaged sector count : 0

Track 05
Filename : /Users/mydrive/Music/Shania Twain - Queen Of Me (2023) [FLAC]/05 Pretty Liar.flac

Track gain : -11.03 dB
Peak : 0.960999
CRC32 hash (test run) : 1546C70B
CRC32 hash : 1546C70B
CRC32 hash (skip zero) : C2F299BE
AccurateRip v1 signature : DDB08BE0
AccurateRip v2 signature : A181E2DC
->Track not present in AccurateRip database.
Statistics
Read error : 0
Jitter error (maybe fixed) : 0
Retry sector count : 0
Damaged sector count : 0

Track 06
Filename : /Users/mydrive/Music/Shania Twain - Queen Of Me (2023) [FLAC]/06 Inhale/Exhale AIR.flac

Track gain : -11.10 dB
Peak : 0.999969
CRC32 hash (test run) : 92BCD016
CRC32 hash : 92BCD016
CRC32 hash (skip zero) : 48277FF0
AccurateRip v1 signature : 4C7C87FF
AccurateRip v2 signature : AD299853
->Track not present in AccurateRip database.
Statistics
Read error : 0
Jitter error (maybe fixed) : 0
Retry sector count : 0
Damaged sector count : 0

Track 07
Filename : /Users/mydrive/Music/Shania Twain - Queen Of Me (2023) [FLAC]/07 Last Day Of Summer.flac

Track gain : -10.95 dB
Peak : 0.999969
CRC32 hash (test run) : E65D7620
CRC32 hash : E65D7620
CRC32 hash (skip zero) : 7D169DB5
AccurateRip v1 signature : 9D3A0955
AccurateRip v2 signature : D7DF5A2E
->Track not present in AccurateRip database.
Statistics
Read error : 0
Jitter error (maybe fixed) : 0
Retry sector count : 0
Damaged sector count : 0

Track 08
Filename : /Users/mydrive/Music/Shania Twain - Queen Of Me (2023) [FLAC]/08 Queen Of Me.flac

Track gain : -10.13 dB
Peak : 0.999969
CRC32 hash (test run) : 7F396B5C
CRC32 hash : 7F396B5C
CRC32 hash (skip zero) : CA4FE88E
AccurateRip v1 signature : 30906AB3
AccurateRip v2 signature : 2899BBD8
->Track not present in AccurateRip database.
Statistics
Read error : 0
Jitter error (maybe fixed) : 0
Retry sector count : 0
Damaged sector count : 0

Track 09
Filename : /Users/mydrive/Music/Shania Twain - Queen Of Me (2023) [FLAC]/09 Got It Good.flac

Track gain : -11.69 dB
Peak : 0.999969
CRC32 hash (test run) : 45363B95
CRC32 hash : 45363B95
CRC32 hash (skip zero) : C5B43BE4
AccurateRip v1 signature : 8B251EC4
AccurateRip v2 signature : 347B1B38
->Track not present in AccurateRip database.
Statistics
Read error : 0
Jitter error (maybe fixed) : 0
Retry sector count : 0
Damaged sector count : 0

Track 10
Filename : /Users/mydrive/Music/Shania Twain - Queen Of Me (2023) [FLAC]/10 Number One.flac

Track gain : -10.72 dB
Peak : 0.990082
CRC32 hash (test run) : 48938B16
CRC32 hash : 48938B16
CRC32 hash (skip zero) : 49EF92D1
AccurateRip v1 signature : E357D6CC
AccurateRip v2 signature : 9DD8AAE0
->Track not present in AccurateRip database.
Statistics
Read error : 0
Jitter error (maybe fixed) : 0
Retry sector count : 0
Damaged sector count : 0

Track 11
Filename : /Users/mydrive/Music/Shania Twain - Queen Of Me (2023) [FLAC]/11 Not Just A Girl.flac

Track gain : -11.42 dB
Peak : 0.999969
CRC32 hash (test run) : 1A0019A6
CRC32 hash : 1A0019A6
CRC32 hash (skip zero) : 64605F48
AccurateRip v1 signature : FE33AD53
AccurateRip v2 signature : 73E9F422
->Track not present in AccurateRip database.
Statistics
Read error : 0
Jitter error (maybe fixed) : 0
Retry sector count : 0
Damaged sector count : 0

Track 12
Filename : /Users/mydrive/Music/Shania Twain - Queen Of Me (2023) [FLAC]/12 The Hardest Stone.flac

Track gain : -9.63 dB
Peak : 0.989807
CRC32 hash (test run) : 1D8DB35A
CRC32 hash : 1D8DB35A
CRC32 hash (skip zero) : 7D3CEDEB
AccurateRip v1 signature : FCE2A8E4
AccurateRip v2 signature : EE6463D7
->Track not present in AccurateRip database.
Statistics
Read error : 0
Jitter error (maybe fixed) : 0
Retry sector count : 0
Damaged sector count : 0

No errors occurred

End of status report

––-BEGIN XLD SIGNATURE––-
MokTlZ_7.MCrEJakrHxl_ZNCY_jumv74Yrtwg9dfjB3eNOOm_ZK96tCTQqDRvW1hp1WBaAuFTa.7wfuOL.CNlZAz41W3TU9QlMeFCqi
––-END XLD SIGNATURE––-