Tags
Language
Tags
April 2024
Su Mo Tu We Th Fr Sa
31 1 2 3 4 5 6
7 8 9 10 11 12 13
14 15 16 17 18 19 20
21 22 23 24 25 26 27
28 29 30 1 2 3 4

Shawn Colvin - Fat City (1992)

Posted By: Designol
Shawn Colvin - Fat City (1992)

Shawn Colvin - Fat City (1992)
EAC | FLAC | Image (Cue&Log) ~ 349 Mb | Mp3 (CBR320) ~ 134 Mb
Label: Columbia | # 467961 2 | Time: 00:55:37 | Scans included
Singer/Songwriter, Folk Rock, Country Rock, Pop Rock

For her second album, Shawn Colvin took a temporary break from longtime collaborator and producer John Leventhal, teaming up instead with Larry Klein. And while the strongest songs – "Tennessee," "Climb On (A Back That's Strong)," and "Object of My Desire" – are Colvin/Leventhal collaborations, credit should be given to Klein, who incorporated a glossy, more dynamic production and top-notch session players for a stronger and more accessible album. In addition to turning in a strong batch of songs, Colvin shows much more diversity, tackling everything from rootsy rockers to more sensitive folk ballads with equally passionate delivery. "I Don't Know Why" (the first song she wrote) and "Round of Blues" both found considerable success in adult contemporary radio formats, adding to her growing fan base.

Review by Chris Woodstra, Allmusic.com

Shawn Colvin - Fat City (1992)



Tracklist:

01. Polaroids (05:53)
02. Tennessee (04:21)
03. Tenderness On The Block (05:05)
04. Round Of Blues (04:47)
05. Monopoly (04:25)
06. Orion In The Sky (06:38)
07. Climb On (A Back That's Strong) (04:15)
08. Set The Prairie On Fire (07:01)
09. Object Of My Affection (03:53)
10. Kill The Messenger (04:36)
11. I Don't Know Why (04:37)


Exact Audio Copy V0.99 prebeta 4 from 23. January 2008

Отчёт EAC об извлечении, выполненном 10. сентября 2009, 13:41

Shawn Colvin / Fat City

Дисковод: PLEXTOR DVDR PX-800A Adapter: 0 ID: 0

Режим чтения : Достоверность
Использование точного потока : Да
Отключение кэша аудио : Да
Использование указателей C2 : Нет

Коррекция смещения при чтении : 48
Способность читать области Lead-in и Lead-out : Нет
Заполнение пропущенных сэмплов тишиной : Да
Удаление блоков с тишиной в начале и конце : Нет
При вычислениях CRC использовались нулевые сэмплы : Да
Интерфейс : Встроенный Win32-интерфейс для Win NT/2000

Выходной формат : Внутренние WAV-операции
Формат сэмплов : 44.100 Гц; 16 бит; стерео


TOC извлечённого CD

Трек | Старт | Длительность | Начальный сектор | Конечный сектор
––––––––––––––––––––––––––––––––––-
1 | 0:00.00 | 5:53.45 | 0 | 26519
2 | 5:53.45 | 4:21.55 | 26520 | 46149
3 | 10:15.25 | 5:05.27 | 46150 | 69051
4 | 15:20.52 | 4:47.45 | 69052 | 90621
5 | 20:08.22 | 4:25.55 | 90622 | 110551
6 | 24:34.02 | 6:38.18 | 110552 | 140419
7 | 31:12.20 | 4:15.72 | 140420 | 159616
8 | 35:28.17 | 7:01.20 | 159617 | 191211
9 | 42:29.37 | 3:53.18 | 191212 | 208704
10 | 46:22.55 | 4:36.60 | 208705 | 229464
11 | 50:59.40 | 4:37.12 | 229465 | 250251


Характеристики диапазона извлечения и сообщения об ошибках

Выбранный диапазон

Имя файла D:\Lossless\Shawn Colvin - fat City - 1992\Shawn Colvin - Fat City.wav

Пиковый уровень 97.5 %
Качество диапазона 100.0 %
CRC копии 5E50EFBF
Копирование… OK

Ошибок не произошло

Конец отчёта

[CUETools log; Date: 20.01.2016 21:58:31; Version: 2.1.4]
[CTDB TOCID: oWQd2_VYv7kmBLk1aEXUJbdM_RU-] found.
Track | CTDB Status
1 | (31/31) Accurately ripped
2 | (30/31) Accurately ripped
3 | (30/31) Accurately ripped
4 | (31/31) Accurately ripped
5 | (30/31) Accurately ripped
6 | (30/31) Accurately ripped
7 | (30/31) Accurately ripped
8 | (28/31) Accurately ripped
9 | (30/31) Accurately ripped
10 | (29/31) Accurately ripped
11 | (27/31) Accurately ripped
[AccurateRip ID: 00173b87-00c918d6-860d080b] found.
Track [ CRC | V2 ] Status
01 [8b3627f7|7da95980] (04+07/90) Accurately ripped
02 [05174ab9|b475dbde] (04+07/90) Accurately ripped
03 [7006aaa1|456e51cc] (03+08/90) Accurately ripped
04 [8e2cdd07|b239a8d8] (03+08/90) Accurately ripped
05 [219ef1d7|70349d5f] (03+08/89) Accurately ripped
06 [cbc11289|3e25629d] (03+08/90) Accurately ripped
07 [47ecd508|373fb98b] (03+08/90) Accurately ripped
08 [7ff59614|56b8b87e] (03+08/90) Accurately ripped
09 [21a7f702|1d0a8a2c] (03+08/90) Accurately ripped
10 [4bbd4e43|a333e922] (03+08/90) Accurately ripped
11 [2365aaf1|5aea0f94] (03+08/89) Accurately ripped
Offsetted by 628:
01 [f430e524] (25/90) Accurately ripped
02 [c38752e0] (25/90) Accurately ripped
03 [59209e9d] (25/90) Accurately ripped
04 [b04afbf7] (25/90) Accurately ripped
05 [07fec663] (24/89) Accurately ripped
06 [45ee33e1] (25/90) Accurately ripped
07 [10bf08d0] (25/90) Accurately ripped
08 [db5b8395] (25/90) Accurately ripped
09 [bb705d15] (25/90) Accurately ripped
10 [c73c77e8] (25/90) Accurately ripped
11 [485ea0c4] (24/89) Accurately ripped
Offsetted by 1739:
01 [806033b7] (12/90) Accurately ripped
02 [d0105dd6] (12/90) Accurately ripped
03 [896aeb28] (12/90) Accurately ripped
04 [e8fb612b] (12/90) Accurately ripped
05 [21962172] (12/89) Accurately ripped
06 [7d744aca] (12/90) Accurately ripped
07 [1ff8960d] (12/90) Accurately ripped
08 [7caed56b] (12/90) Accurately ripped
09 [3556ca12] (12/90) Accurately ripped
10 [3e84c5a1] (12/90) Accurately ripped
11 [14b233d8] (12/89) Accurately ripped

Track Peak [ CRC32 ] [W/O NULL] [ LOG ]
– 97,5 [5E50EFBF] [97A0BDE9] CRC32
01 97,3 [FD4336C1] [0B14F402]
02 97,3 [13A3077A] [71337C6E]
03 97,3 [E0B9C9B4] [4A5C2D53]
04 97,3 [BF3C3384] [71013F7A]
05 97,5 [1C453C0D] [2B592695]
06 97,3 [F87B3D50] [A1A1C355]
07 97,3 [835C8548] [3A7F7996]
08 97,3 [EDC4C9C5] [BEE8E2E5]
09 97,3 [797CB696] [121229BF]
10 97,2 [75AD99CB] [EC31F462]
11 77,6 [9AFB986D] [635EF7CA]

foobar2000 1.2 / Dynamic Range Meter 1.1.1
log date: 2016-01-20 22:07:21

––––––––––––––––––––––––––––––––––––––––
Analyzed: Shawn Colvin / Fat City
––––––––––––––––––––––––––––––––––––––––

DR Peak RMS Duration Track
––––––––––––––––––––––––––––––––––––––––
DR13 -0.24 dB -14.94 dB 5:54 01-Polaroids
DR11 -0.24 dB -12.47 dB 4:22 02-Tennessee
DR13 -0.24 dB -14.93 dB 5:05 03-Tenderness On The Block
DR13 -0.24 dB -14.62 dB 4:48 04-Round Of Blues
DR13 -0.22 dB -18.14 dB 4:26 05-Monopoly
DR13 -0.24 dB -14.72 dB 6:38 06-Orion In The Sky
DR11 -0.24 dB -12.79 dB 4:16 07-Climb On (A Back That's Strong)
DR14 -0.24 dB -17.57 dB 7:01 08-Set The Prairie On Fire
DR13 -0.24 dB -15.44 dB 3:53 09-Object Of My Affection
DR12 -0.24 dB -16.04 dB 4:37 10-Kill The Messenger
DR11 -2.20 dB -15.37 dB 4:37 11-I Don't Know Why
––––––––––––––––––––––––––––––––––––––––

Number of tracks: 11
Official DR value: DR12

Samplerate: 44100 Hz
Channels: 2
Bits per sample: 16
Bitrate: 862 kbps
Codec: FLAC
================================================================================

Shawn Colvin - Fat City (1992)

Shawn Colvin - Fat City (1992)

All thanks to original releaser - SerBlues

More interesting music in My Blog