Tags
Language
Tags

Silvia Perez Cruz - Vestida De Nit (2017) {Universal Spain}

Posted By: tiburon
Silvia Perez Cruz - Vestida De Nit (2017) {Universal Spain}

Silvia Perez Cruz - Vestida De Nit (2017) {Universal Spain}
EAC 1.0b3 | FLAC tracks level 8 | Cue+Log+M3U | Full Scans 300dpi | 513MB + 5% Recovery
Genre: Latin, Blues, Pop, Folk, World

Luckily for everyone, Silvia Pérez Cruz can do whatever she wants without ever falling out of excellence. An incorrect phrase, the previous one, since the power to create from the bowels should be the usual, not an acquired right: however, when there is so much quality in the emitting signal, the content is immediately coated with a beautiful patina, Regardless of what the story in question addresses.
Track List
01. Tonada de luna llena
02. Mechita
03. La lambada (Chorando se foi)
04. Loca
05. Estranha forma de vida
06. Vestida de nit
07. Ai, ai, ai
08. Gallo rojo, gallo negro
09. Nao sei
10. Corrandes d’exili
11. Hallelujah

musicians
Voice and string quintet
Sílvia Pérez Cruz: Vocals
Elena Rey and Carlos Monfort: Violins
Anna Aldomà: Viola
Joan Antoni Pich: Cello
Miguel Angel Cordero: Double bass

Produced by Sílvia Pérez Cruz


Exact Audio Copy V1.0 beta 3 from 29. August 2011

EAC extraction logfile from 5. June 2017, 18:30

Silvia Perez Cruz / Vestida De Nit

Used drive : ASUS DRW-24F1ST a Adapter: 0 ID: 0

Read mode : Secure
Utilize accurate stream : Yes
Defeat audio cache : Yes
Make use of C2 pointers : No

Read offset correction : 6
Overread into Lead-In and Lead-Out : No
Fill up missing offset samples with silence : Yes
Delete leading and trailing silent blocks : No
Null samples used in CRC calculations : Yes
Used interface : Native Win32 interface for Win NT & 2000
Gap handling : Appended to previous track

Used output format : User Defined Encoder
Selected bitrate : 128 kBit/s
Quality : High
Add ID3 tag : No
Command line compressor : C:\Program Files (x86)\Exact Audio Copy\FLAC\FLAC.EXE
Additional command line options : -8 -V -T "ARTIST=%artist%" -T "TITLE=%title%" -T "ALBUM=%albumtitle%" -T "DATE=%year%" -T "TRACKNUMBER=%tracknr%" -T "TOTALTRACKS=%numtracks%" -T "GENRE=%genre%" -T "ALBUMARTIST=%albumartist%" -T "ALBUM ARTIST=%albumartist%" -T "COMMENT=EAC Secure Mode, Test & Copy, AccurateRip, FLAC -8" %source%


TOC of the extracted CD

Track | Start | Length | Start sector | End sector
––––––––––––––––––––––––––––-
1 | 0:00.00 | 6:27.61 | 0 | 29085
2 | 6:27.61 | 2:42.27 | 29086 | 41262
3 | 9:10.13 | 6:56.11 | 41263 | 72473
4 | 16:06.24 | 5:00.57 | 72474 | 95030
5 | 21:07.06 | 3:23.31 | 95031 | 110286
6 | 24:30.37 | 5:52.48 | 110287 | 136734
7 | 30:23.10 | 3:08.06 | 136735 | 150840
8 | 33:31.16 | 6:25.63 | 150841 | 179778
9 | 39:57.04 | 4:41.21 | 179779 | 200874
10 | 44:38.25 | 6:27.28 | 200875 | 229927
11 | 51:05.53 | 5:30.71 | 229928 | 254748


Track 1

Filename K:\EAC\01 - Tonada De Luna Llena.wav

Pre-gap length 0:00:02.00

Peak level 97.7 %
Extraction speed 2.0 X
Track quality 100.0 %
Test CRC D203263C
Copy CRC D203263C
Track not present in AccurateRip database
Copy OK

Track 2

Filename K:\EAC\02 - Mechita.wav

Pre-gap length 0:00:05.50

Peak level 97.7 %
Extraction speed 1.6 X
Track quality 99.9 %
Test CRC A75C1493
Copy CRC A75C1493
Track not present in AccurateRip database
Copy OK

Track 3

Filename K:\EAC\03 - La Lambada (Chorando Se Foi).wav

Pre-gap length 0:00:04.00

Peak level 97.7 %
Extraction speed 2.4 X
Track quality 100.0 %
Test CRC 2E361EE5
Copy CRC 2E361EE5
Track not present in AccurateRip database
Copy OK

Track 4

Filename K:\EAC\04 - Loca.wav

Pre-gap length 0:00:04.00

Peak level 97.7 %
Extraction speed 2.3 X
Track quality 99.9 %
Test CRC 0CB59683
Copy CRC 0CB59683
Track not present in AccurateRip database
Copy OK

Track 5

Filename K:\EAC\05 - Estranha Forma De Vida.wav

Pre-gap length 0:00:05.50

Peak level 97.7 %
Extraction speed 2.6 X
Track quality 100.0 %
Test CRC 0F306C5B
Copy CRC 0F306C5B
Track not present in AccurateRip database
Copy OK

Track 6

Filename K:\EAC\06 - Vestida De Nit.wav

Pre-gap length 0:00:04.50

Peak level 97.7 %
Extraction speed 2.9 X
Track quality 100.0 %
Test CRC 648DBB4F
Copy CRC 648DBB4F
Track not present in AccurateRip database
Copy OK

Track 7

Filename K:\EAC\07 - Ai, Ai, Ai.wav

Pre-gap length 0:00:04.00

Peak level 97.7 %
Extraction speed 2.8 X
Track quality 100.0 %
Test CRC E5EB79A6
Copy CRC E5EB79A6
Track not present in AccurateRip database
Copy OK

Track 8

Filename K:\EAC\08 - Gallo Rojo, Gallo Negro.wav

Pre-gap length 0:00:03.00

Peak level 97.7 %
Extraction speed 3.2 X
Track quality 100.0 %
Test CRC D77A9E9E
Copy CRC D77A9E9E
Track not present in AccurateRip database
Copy OK

Track 9

Filename K:\EAC\09 - Nao Sei.wav

Pre-gap length 0:00:03.50

Peak level 97.7 %
Extraction speed 3.3 X
Track quality 100.0 %
Test CRC 2184AC3E
Copy CRC 2184AC3E
Track not present in AccurateRip database
Copy OK

Track 10

Filename K:\EAC\10 - Corrandes D'Exili.wav

Pre-gap length 0:00:03.00

Peak level 97.7 %
Extraction speed 3.5 X
Track quality 100.0 %
Test CRC 90673B14
Copy CRC 90673B14
Track not present in AccurateRip database
Copy OK

Track 11

Filename K:\EAC\11 - Hallelujah.wav

Pre-gap length 0:00:07.00

Peak level 97.7 %
Extraction speed 3.7 X
Track quality 100.0 %
Test CRC E59C3F43
Copy CRC E59C3F43
Track not present in AccurateRip database
Copy OK


None of the tracks are present in the AccurateRip database

No errors occurred

End of status report

==== Log checksum 28DB5D01D231052FBCEF6B9E7FE6DA3576AA9202A5575AE0B48D480095688865 ====

Silvia Perez Cruz - Vestida De Nit (2017) {Universal Spain}
Silvia Perez Cruz - Vestida De Nit (2017) {Universal Spain}


Thanks to the original ripper