Subcategories

Simple Minds - Celebrate: Greatest Hits (2013) [3CD Box Set] Repost

Posted By: v3122
Simple Minds - Celebrate: Greatest Hits (2013) [3CD Box Set] Repost

Simple Minds - Celebrate: Greatest Hits (2013)
EAC | Flac(Image) + Cue + Log & MP3 CBR 320Kbps
Virgin/Simple Minds, 934 813 2/CDVDX 3120 | ~ 1562 or 522 Mb | Scans(jpg) -> 1.29 Gb
New Wave / Pop Rock / Synth-Pop

Celebrate: The Greatest Hits is a compilation album by Scottish rock band Simple Minds, released on March 25, 2013. There were three different formats released: a two-disc version, a three-disc version, and a single-disc version for the North American market. The album spans all of their studio albums from 1979's Life in a Day to 2009's Graffiti Soul, which at the time was the latest album Simple Minds released, plus the live version "Promised You a Miracle" from 1987's Live in the City of Light, and new tracks recorded for this compilation: "Stagefright", "Blood Diamonds", and "Broken Glass Park". The 1-disc and 2-disc version come in jewel cases. The 3-disc version comes in a clam shell box which comes with sleeves for each disc (which represent periods in the band's history), a double-sided poster that includes the album's cover art on one side and the cover art for all of the singles included on this compilation on the other side…

~ wiki
Simple Minds - Celebrate: Greatest Hits (2013):

Simple Minds - Celebrate: Greatest Hits (2013) [3CD Box Set] Repost

Tracklist CD1 - 1979-1985:

01. Life In A Day [0:04:07.12]
02. Chelsea Girl [0:03:59.04]
03. Changeling [0:03:30.36]
04. I Travel [0:03:09.27]
05. Celebrate [0:02:52.68]
06. The American [0:03:35.61]
07. Love Song [0:03:53.05]
08. Sweat In Bullet [0:03:02.19]
09. Theme For Great Cities [0:05:50.62]
10. Promised You A Miracle [0:04:00.02]
11. Glittering Prize [0:03:59.25]
12. Someone Somewhere (In Summertime) [0:04:36.41]
13. New Gold Dream (81, 82, 83, 84) [0:04:47.16]
14. Waterfront [0:04:46.39]
15. Speed Your Love To Me [0:04:04.69]
16. Up On The Catwalk [0:04:05.41]

Exact Audio Copy V1.0 beta 3 from 29. August 2011

EAC extraction logfile from 11. June 2013, 23:45

Simple Minds / Celebrate (Disc 01 - 1979-1985)

Used drive : PIONEER DVD-RW DVR-112D Adapter: 2 ID: 1

Read mode : Secure
Utilize accurate stream : Yes
Defeat audio cache : Yes
Make use of C2 pointers : No

Read offset correction : 48
Overread into Lead-In and Lead-Out : No
Fill up missing offset samples with silence : Yes
Delete leading and trailing silent blocks : No
Null samples used in CRC calculations : Yes
Used interface : Installed external ASPI interface

Used output format : User Defined Encoder
Selected bitrate : 1024 kBit/s
Quality : High
Add ID3 tag : No
Command line compressor : C:\Program Files (x86)\Exact Audio Copy\Flac\flac.exe
Additional command line options : -8 -V -T "Date=%year%" -T "Genre=%genre%" -T "COMMENT=ripped by bvstudio®" %source%


TOC of the extracted CD

Track | Start | Length | Start sector | End sector
––––––––––––––––––––––––––––-
1 | 0:00.00 | 4:07.12 | 0 | 18536
2 | 4:07.12 | 3:59.04 | 18537 | 36465
3 | 8:06.16 | 3:30.36 | 36466 | 52251
4 | 11:36.52 | 3:09.27 | 52252 | 66453
5 | 14:46.04 | 2:52.68 | 66454 | 79421
6 | 17:38.72 | 3:35.61 | 79422 | 95607
7 | 21:14.58 | 3:53.05 | 95608 | 113087
8 | 25:07.63 | 3:02.19 | 113088 | 126756
9 | 28:10.07 | 5:50.62 | 126757 | 153068
10 | 34:00.69 | 4:00.02 | 153069 | 171070
11 | 38:00.71 | 3:59.25 | 171071 | 189020
12 | 42:00.21 | 4:36.41 | 189021 | 209761
13 | 46:36.62 | 4:47.16 | 209762 | 231302
14 | 51:24.03 | 4:46.39 | 231303 | 252791
15 | 56:10.42 | 4:04.69 | 252792 | 271160
16 | 60:15.36 | 4:05.41 | 271161 | 289576


Range status and errors

Selected range

Filename F:\Simple Minds\2013 - Celebrate (3CD)\Disc 01 - 1979-1985\Simple Minds - Celebrate (Disc 01 - 1979-1985).wav

Peak level 97.7 %
Extraction speed 7.3 X
Range quality 100.0 %
Test CRC 4F11360F
Copy CRC 4F11360F
Copy OK

No errors occurred


AccurateRip summary

Track 1 accurately ripped (confidence 1) [AD37D4D6] (AR v1)
Track 2 accurately ripped (confidence 1) [EC17D5E0] (AR v1)
Track 3 accurately ripped (confidence 1) [6131A659] (AR v1)
Track 4 accurately ripped (confidence 1) [E6AE9DCD] (AR v1)
Track 5 accurately ripped (confidence 1) [E0749B5A] (AR v1)
Track 6 accurately ripped (confidence 1) [8E58663F] (AR v1)
Track 7 accurately ripped (confidence 1) [92871383] (AR v1)
Track 8 accurately ripped (confidence 1) [C1A261F1] (AR v1)
Track 9 accurately ripped (confidence 1) [29764004] (AR v1)
Track 10 accurately ripped (confidence 1) [28706997] (AR v1)
Track 11 accurately ripped (confidence 1) [EBF681AE] (AR v1)
Track 12 accurately ripped (confidence 1) [0A93D3FD] (AR v1)
Track 13 accurately ripped (confidence 1) [2F98E104] (AR v1)
Track 14 accurately ripped (confidence 1) [E5CFADBB] (AR v1)
Track 15 accurately ripped (confidence 1) [02846DE5] (AR v1)
Track 16 accurately ripped (confidence 1) [86AD308F] (AR v1)

All tracks accurately ripped

End of status report

–– CUETools DB Plugin V2.1.5

[CTDB TOCID: oQOKdDIJgZ0uTJX7ju51Vdv86Io-] found
Submit result: oQOKdDIJgZ0uTJX7ju51Vdv86Io- has been confirmed
Track | CTDB Status
1 | (7/8) Accurately ripped
2 | (7/8) Accurately ripped
3 | (7/8) Accurately ripped
4 | (7/8) Accurately ripped
5 | (7/8) Accurately ripped
6 | (7/8) Accurately ripped
7 | (7/8) Accurately ripped
8 | (7/8) Accurately ripped
9 | (7/8) Accurately ripped
10 | (7/8) Accurately ripped
11 | (7/8) Accurately ripped
12 | (7/8) Accurately ripped
13 | (7/8) Accurately ripped
14 | (7/8) Accurately ripped
15 | (7/8) Accurately ripped
16 | (7/8) Accurately ripped


==== Log checksum B40E3FA393B3B75B71FF46F354EA553DA55D70D139128380AB8EBD19AD3EE10B ====


[CUETools log; Date: 16.05.2018 19:43:46; Version: 2.1.5]
[CTDB TOCID: oQOKdDIJgZ0uTJX7ju51Vdv86Io-] found.
Track | CTDB Status
1 | (71/73) Accurately ripped
2 | (71/73) Accurately ripped
3 | (71/73) Accurately ripped
4 | (71/73) Accurately ripped
5 | (71/73) Accurately ripped
6 | (71/73) Accurately ripped
7 | (71/73) Accurately ripped
8 | (70/73) Accurately ripped
9 | (70/73) Accurately ripped
10 | (71/73) Accurately ripped
11 | (71/73) Accurately ripped
12 | (71/73) Accurately ripped
13 | (71/73) Accurately ripped
14 | (71/73) Accurately ripped
15 | (71/73) Accurately ripped
16 | (71/73) Accurately ripped
[AccurateRip ID: 0023f474-01b41190-f80f1510] found.
Track [ CRC | V2 ] Status
01 [ad37d4d6|3666870a] (04+46/50) Accurately ripped
02 [ec17d5e0|b8de1a66] (04+46/50) Accurately ripped
03 [6131a659|d4988df7] (04+46/50) Accurately ripped
04 [e6ae9dcd|6ed9c268] (04+45/49) Accurately ripped
05 [e0749b5a|4400cde0] (04+45/49) Accurately ripped
06 [8e58663f|947f996b] (04+46/50) Accurately ripped
07 [92871383|3fa5fa2e] (04+46/50) Accurately ripped
08 [c1a261f1|8182af19] (04+46/50) Accurately ripped
09 [29764004|62524f7c] (04+46/50) Accurately ripped
10 [28706997|a4130eda] (04+46/50) Accurately ripped
11 [ebf681ae|f03de11e] (04+46/50) Accurately ripped
12 [0a93d3fd|94aa28a4] (04+46/50) Accurately ripped
13 [2f98e104|881d5882] (04+45/49) Accurately ripped
14 [e5cfadbb|ce41200f] (04+46/50) Accurately ripped
15 [02846de5|86fad9ac] (04+46/50) Accurately ripped
16 [86ad308f|13cdda38] (04+45/49) Accurately ripped

Track Peak [ CRC32 ] [W/O NULL] [ LOG ]
– 97,7 [4F11360F] [5E218092] CRC32
01 94,4 [7FC0016E] [2F9EE2DC]
02 95,4 [525A6866] [AB7F2B8A]
03 92,2 [4C956ED1] [186D3A1C]
04 97,7 [A0CA5762] [206109DD]
05 94,4 [FE1C5D3A] [90E3A2A7]
06 94,4 [5A6B4B2F] [EF82D050]
07 95,5 [8B1101F3] [43E52ED6]
08 96,6 [5687D669] [47E95F30]
09 95,5 [8813AE09] [D18E5B4F]
10 83,1 [45F2B37D] [4A51D631]
11 87,0 [C41D595D] [340E5562]
12 94,4 [70E0D553] [52B6DA55]
13 94,4 [965B601A] [81E23166]
14 94,4 [0E51CEF2] [E6D82BFF]
15 95,5 [F38F292A] [0F6A1550]
16 95,5 [9F9D3419] [E1C34216]


Simple Minds - Celebrate: Greatest Hits (2013) [3CD Box Set] Repost

Tracklist CD2 - 1985-1991:

01. Don't You (Forget About Me) [0:04:20.58]
02. Alive And Kicking [0:04:46.69]
03. Sanctify Yourself [0:03:56.23]
04. All The Things She Said [0:04:18.00]
05. Ghost Dancing [0:04:45.23]
06. Promised You A Miracle (Live) [0:04:38.74]
07. Belfast Child [0:05:14.45]
08. Mandela Day [0:05:42.16]
09. Biko [0:07:32.45]
10. This Is Your Land [0:04:48.06]
11. Kick It In [0:04:22.15]
12. Let It All Come Down [0:03:40.02]
13. Let There Be Love [0:04:44.57]
14. See The Lights [0:03:55.25]
15. Stand By Love [0:04:08.55]
16. Real Life [0:03:54.42]

Exact Audio Copy V1.0 beta 3 from 29. August 2011

EAC extraction logfile from 12. June 2013, 0:11

Simple Minds / Celebrate (Disc 02 - 1985-1991)

Used drive : PIONEER DVD-RW DVR-112D Adapter: 2 ID: 1

Read mode : Secure
Utilize accurate stream : Yes
Defeat audio cache : Yes
Make use of C2 pointers : No

Read offset correction : 48
Overread into Lead-In and Lead-Out : No
Fill up missing offset samples with silence : Yes
Delete leading and trailing silent blocks : No
Null samples used in CRC calculations : Yes
Used interface : Installed external ASPI interface

Used output format : User Defined Encoder
Selected bitrate : 1024 kBit/s
Quality : High
Add ID3 tag : No
Command line compressor : C:\Program Files (x86)\Exact Audio Copy\Flac\flac.exe
Additional command line options : -8 -V -T "Date=%year%" -T "Genre=%genre%" -T "COMMENT=ripped by bvstudio®" %source%


TOC of the extracted CD

Track | Start | Length | Start sector | End sector
––––––––––––––––––––––––––––-
1 | 0:00.00 | 4:20.58 | 0 | 19557
2 | 4:20.58 | 4:46.69 | 19558 | 41076
3 | 9:07.52 | 3:56.23 | 41077 | 58799
4 | 13:04.00 | 4:18.00 | 58800 | 78149
5 | 17:22.00 | 4:45.23 | 78150 | 99547
6 | 22:07.23 | 4:38.74 | 99548 | 120471
7 | 26:46.22 | 5:14.45 | 120472 | 144066
8 | 32:00.67 | 5:42.16 | 144067 | 169732
9 | 37:43.08 | 7:32.45 | 169733 | 203677
10 | 45:15.53 | 4:48.06 | 203678 | 225283
11 | 50:03.59 | 4:22.15 | 225284 | 244948
12 | 54:25.74 | 3:40.02 | 244949 | 261450
13 | 58:06.01 | 4:44.57 | 261451 | 282807
14 | 62:50.58 | 3:55.25 | 282808 | 300457
15 | 66:46.08 | 4:08.55 | 300458 | 319112
16 | 70:54.63 | 3:54.42 | 319113 | 336704


Range status and errors

Selected range

Filename F:\Simple Minds\2013 - Celebrate (3CD)\Disc 02 - 1985-1991\Simple Minds - Celebrate (Disc 02 - 1985-1991).wav

Peak level 97.7 %
Extraction speed 7.9 X
Range quality 100.0 %
Test CRC FA467D8E
Copy CRC FA467D8E
Copy OK

No errors occurred


AccurateRip summary

Track 1 accurately ripped (confidence 1) [325A6DC5] (AR v1)
Track 2 accurately ripped (confidence 1) [54BDF446] (AR v1)
Track 3 accurately ripped (confidence 1) [43B647BF] (AR v1)
Track 4 accurately ripped (confidence 1) [5FBA3967] (AR v1)
Track 5 accurately ripped (confidence 1) [FDC4C63D] (AR v1)
Track 6 accurately ripped (confidence 1) [2AC7050F] (AR v1)
Track 7 accurately ripped (confidence 1) [65FD58E9] (AR v1)
Track 8 accurately ripped (confidence 1) [D8AB867D] (AR v1)
Track 9 accurately ripped (confidence 1) [79A0E183] (AR v1)
Track 10 accurately ripped (confidence 1) [7C8DE30C] (AR v1)
Track 11 accurately ripped (confidence 1) [B6DD3DC9] (AR v1)
Track 12 accurately ripped (confidence 1) [1B1D4CE9] (AR v1)
Track 13 accurately ripped (confidence 1) [AA13BC2D] (AR v1)
Track 14 accurately ripped (confidence 1) [8A3B79DC] (AR v1)
Track 15 accurately ripped (confidence 1) [08F9C53C] (AR v1)
Track 16 accurately ripped (confidence 1) [08F6315C] (AR v1)

All tracks accurately ripped

End of status report

–– CUETools DB Plugin V2.1.5

[CTDB TOCID: 9YEv4GxI6q2IQQP.gmLXNnrAb_A-] found
Submit result: 9YEv4GxI6q2IQQP.gmLXNnrAb_A- has been confirmed
Track | CTDB Status
1 | (6/7) Accurately ripped
2 | (6/7) Accurately ripped
3 | (6/7) Accurately ripped
4 | (6/7) Accurately ripped
5 | (6/7) Accurately ripped
6 | (6/7) Accurately ripped
7 | (6/7) Accurately ripped
8 | (6/7) Accurately ripped
9 | (6/7) Accurately ripped
10 | (6/7) Accurately ripped
11 | (6/7) Accurately ripped
12 | (6/7) Accurately ripped
13 | (6/7) Accurately ripped
14 | (6/7) Accurately ripped
15 | (6/7) Accurately ripped
16 | (6/7) Accurately ripped


==== Log checksum 8A2BBE1B807148E6DF5E693C6950B08C61F6A66A81AC686BFE47F7B3C0E692C3 ====


[CUETools log; Date: 16.05.2018 19:44:08; Version: 2.1.5]
[CTDB TOCID: 9YEv4GxI6q2IQQP.gmLXNnrAb_A-] found.
Track | CTDB Status
1 | (74/75) Accurately ripped
2 | (74/75) Accurately ripped
3 | (74/75) Accurately ripped
4 | (74/75) Accurately ripped
5 | (74/75) Accurately ripped
6 | (74/75) Accurately ripped
7 | (74/75) Accurately ripped
8 | (74/75) Accurately ripped
9 | (74/75) Accurately ripped
10 | (74/75) Accurately ripped
11 | (74/75) Accurately ripped
12 | (74/75) Accurately ripped
13 | (74/75) Accurately ripped
14 | (74/75) Accurately ripped
15 | (74/75) Accurately ripped
16 | (74/75) Accurately ripped
[AccurateRip ID: 002c56fb-0216f1e9-e9118910] found.
Track [ CRC | V2 ] Status
01 [325a6dc5|0609a979] (04+44/48) Accurately ripped
02 [54bdf446|0781ec27] (04+44/48) Accurately ripped
03 [43b647bf|85575af6] (04+44/48) Accurately ripped
04 [5fba3967|947be95a] (04+44/48) Accurately ripped
05 [fdc4c63d|1a776254] (04+44/48) Accurately ripped
06 [2ac7050f|f428c06d] (04+44/48) Accurately ripped
07 [65fd58e9|01b5d308] (04+44/48) Accurately ripped
08 [d8ab867d|33ece909] (04+44/48) Accurately ripped
09 [79a0e183|eea1052e] (04+44/48) Accurately ripped
10 [7c8de30c|f6472b31] (04+44/48) Accurately ripped
11 [b6dd3dc9|e22e1630] (04+44/48) Accurately ripped
12 [1b1d4ce9|6ff05cb3] (04+44/48) Accurately ripped
13 [aa13bc2d|d8f0b0a7] (04+44/48) Accurately ripped
14 [8a3b79dc|b004c1c6] (04+45/49) Accurately ripped
15 [08f9c53c|f191ced8] (04+45/49) Accurately ripped
16 [08f6315c|1d0272f6] (04+45/49) Accurately ripped

Track Peak [ CRC32 ] [W/O NULL] [ LOG ]
– 97,7 [FA467D8E] [E271B567] CRC32
01 92,2 [E9B69223] [9351F69F]
02 94,4 [5411880A] [73C7BD73]
03 97,7 [8C2C7BC4] [1E1AF22B]
04 97,7 [5EE549C2] [6E0D3CA9]
05 97,4 [70C016EF] [A2497E7E]
06 96,6 [F1E79FC0] [3D516E44]
07 94,4 [E7B1D461] [3D37E24F]
08 97,7 [D098206E] [16F34F79]
09 97,7 [26AD2922] [89BA5458]
10 96,6 [22D9685C] [0709D535]
11 88,0 [6B7A8738] [C8D01C4C]
12 90,1 [9D5AC95E] [83A7A016]
13 94,4 [5D5FDFDE] [A742A4EF]
14 94,4 [266B44D6] [EC142B0D]
15 96,6 [410D001B] [2D9BAD74]
16 96,6 [2B553C9A] [762B255D]


Simple Minds - Celebrate: Greatest Hits (2013) [3CD Box Set] Repost

Tracklist CD3 - 1995-2013:

01. She's A River [0:04:30.27]
02. Hypnotised [0:04:33.70]
03. Glitterball [0:04:25.24]
04. War Babies [0:04:18.18]
05. Space [0:05:28.37]
06. Jeweller To The Stars [0:03:33.43]
07. Dancing Barefoot [0:03:49.15]
08. Cry [0:03:55.04]
09. Spaceface [0:03:52.51]
10. One Step Closer [0:06:05.22]
11. Home [0:04:23.72]
12. Stranger [0:04:10.37]
13. Stay Visible [0:05:19.71]
14. Rockets [0:03:27.10]
15. Stars Will Lead The Way [0:03:26.28]
16. Stagefright (New Track) [0:04:15.50]
17. Blood Diamonds (New Track) [0:03:55.10]
18. Broken Glass Park (New Track) [0:04:09.02]

Exact Audio Copy V1.0 beta 3 from 29. August 2011

EAC extraction logfile from 12. June 2013, 0:38

Simple Minds / Celebrate (Disc 03 - 1995-2013)

Used drive : PIONEER DVD-RW DVR-112D Adapter: 2 ID: 1

Read mode : Secure
Utilize accurate stream : Yes
Defeat audio cache : Yes
Make use of C2 pointers : No

Read offset correction : 48
Overread into Lead-In and Lead-Out : No
Fill up missing offset samples with silence : Yes
Delete leading and trailing silent blocks : No
Null samples used in CRC calculations : Yes
Used interface : Installed external ASPI interface

Used output format : User Defined Encoder
Selected bitrate : 1024 kBit/s
Quality : High
Add ID3 tag : No
Command line compressor : C:\Program Files (x86)\Exact Audio Copy\Flac\flac.exe
Additional command line options : -8 -V -T "Date=%year%" -T "Genre=%genre%" -T "COMMENT=ripped by bvstudio®" %source%


TOC of the extracted CD

Track | Start | Length | Start sector | End sector
––––––––––––––––––––––––––––-
1 | 0:00.00 | 4:30.27 | 0 | 20276
2 | 4:30.27 | 4:33.70 | 20277 | 40821
3 | 9:04.22 | 4:25.24 | 40822 | 60720
4 | 13:29.46 | 4:18.18 | 60721 | 80088
5 | 17:47.64 | 5:28.37 | 80089 | 104725
6 | 23:16.26 | 3:33.43 | 104726 | 120743
7 | 26:49.69 | 3:49.15 | 120744 | 137933
8 | 30:39.09 | 3:55.04 | 137934 | 155562
9 | 34:34.13 | 3:52.51 | 155563 | 173013
10 | 38:26.64 | 6:05.22 | 173014 | 200410
11 | 44:32.11 | 4:23.72 | 200411 | 220207
12 | 48:56.08 | 4:10.37 | 220208 | 238994
13 | 53:06.45 | 5:19.71 | 238995 | 262990
14 | 58:26.41 | 3:27.10 | 262991 | 278525
15 | 61:53.51 | 3:26.28 | 278526 | 294003
16 | 65:20.04 | 4:15.50 | 294004 | 313178
17 | 69:35.54 | 3:55.10 | 313179 | 330813
18 | 73:30.64 | 4:09.02 | 330814 | 349490


Range status and errors

Selected range

Filename F:\Simple Minds\2013 - Celebrate (3CD)\Disc 03 - 1995-2013\Simple Minds - Celebrate (Disc 03 - 1995-2013).wav

Peak level 97.7 %
Extraction speed 8.1 X
Range quality 100.0 %
Test CRC 0AFD1A71
Copy CRC 0AFD1A71
Copy OK

No errors occurred


AccurateRip summary

Track 1 accurately ripped (confidence 1) [A7914080] (AR v1)
Track 2 accurately ripped (confidence 1) [564DE2A1] (AR v1)
Track 3 accurately ripped (confidence 1) [2DBE1ECC] (AR v1)
Track 4 accurately ripped (confidence 1) [5EB5D982] (AR v1)
Track 5 accurately ripped (confidence 1) [0DAFB2D1] (AR v1)
Track 6 accurately ripped (confidence 1) [EC079CDA] (AR v1)
Track 7 accurately ripped (confidence 1) [C3FB3B0D] (AR v1)
Track 8 accurately ripped (confidence 1) [84770282] (AR v1)
Track 9 accurately ripped (confidence 1) [1B5C0A03] (AR v1)
Track 10 accurately ripped (confidence 1) [2BBB8ED8] (AR v1)
Track 11 accurately ripped (confidence 1) [EA81404D] (AR v1)
Track 12 accurately ripped (confidence 1) [27F53573] (AR v1)
Track 13 accurately ripped (confidence 1) [D56FD818] (AR v1)
Track 14 accurately ripped (confidence 1) [5919F4D9] (AR v1)
Track 15 accurately ripped (confidence 1) [E0AA16DE] (AR v1)
Track 16 accurately ripped (confidence 1) [BBC56DC4] (AR v1)
Track 17 accurately ripped (confidence 1) [AEF724CF] (AR v1)
Track 18 accurately ripped (confidence 1) [A8C4CBAD] (AR v1)

All tracks accurately ripped

End of status report

–– CUETools DB Plugin V2.1.5

[CTDB TOCID: z39HK3LXeLEig_mHZtRNaVfK1Gg-] found
Submit result: z39HK3LXeLEig_mHZtRNaVfK1Gg- has been confirmed
Track | CTDB Status
1 | (6/7) Accurately ripped
2 | (6/7) Accurately ripped
3 | (6/7) Accurately ripped
4 | (6/7) Accurately ripped
5 | (6/7) Accurately ripped
6 | (6/7) Accurately ripped
7 | (6/7) Accurately ripped
8 | (6/7) Accurately ripped
9 | (6/7) Accurately ripped
10 | (6/7) Accurately ripped
11 | (6/7) Accurately ripped
12 | (6/7) Accurately ripped
13 | (6/7) Accurately ripped
14 | (6/7) Accurately ripped
15 | (6/7) Accurately ripped
16 | (6/7) Accurately ripped
17 | (6/7) Accurately ripped
18 | (6/7) Accurately ripped


==== Log checksum 5CBF6E227EFD531FFE31BC050E81127CAD40760F9682F06EDA20640F8D668D83 ====


[CUETools log; Date: 16.05.2018 19:44:31; Version: 2.1.5]
[CTDB TOCID: z39HK3LXeLEig_mHZtRNaVfK1Gg-] found.
Track | CTDB Status
1 | (67/69) Accurately ripped
2 | (67/69) Accurately ripped
3 | (67/69) Accurately ripped
4 | (67/69) Accurately ripped
5 | (67/69) Accurately ripped
6 | (67/69) Accurately ripped
7 | (67/69) Accurately ripped
8 | (67/69) Accurately ripped
9 | (67/69) Accurately ripped
10 | (67/69) Accurately ripped
11 | (66/69) Accurately ripped
12 | (67/69) Accurately ripped
13 | (67/69) Accurately ripped
14 | (67/69) Accurately ripped
15 | (67/69) Accurately ripped
16 | (67/69) Accurately ripped
17 | (67/69) Accurately ripped
18 | (65/69) Accurately ripped
[AccurateRip ID: 00339ced-02ade37d-0a123312] found.
Track [ CRC | V2 ] Status
01 [a7914080|2a7b1b76] (04+43/47) Accurately ripped
02 [564de2a1|5ec76d55] (04+43/47) Accurately ripped
03 [2dbe1ecc|bde52520] (04+43/47) Accurately ripped
04 [5eb5d982|82b4303c] (04+43/47) Accurately ripped
05 [0dafb2d1|68780722] (04+43/47) Accurately ripped
06 [ec079cda|59c5fba5] (04+43/47) Accurately ripped
07 [c3fb3b0d|f349c355] (04+43/47) Accurately ripped
08 [84770282|3f36fdb7] (04+43/47) Accurately ripped
09 [1b5c0a03|afbdf9cb] (04+43/47) Accurately ripped
10 [2bbb8ed8|55d3d1ae] (04+43/47) Accurately ripped
11 [ea81404d|9553a430] (04+43/47) Accurately ripped
12 [27f53573|fe5ca3d1] (04+43/47) Accurately ripped
13 [d56fd818|0988d3c2] (04+43/47) Accurately ripped
14 [5919f4d9|a717b6f6] (04+43/47) Accurately ripped
15 [e0aa16de|cd502a3a] (04+43/47) Accurately ripped
16 [bbc56dc4|043b4443] (04+42/46) Accurately ripped
17 [aef724cf|ab4f2e78] (04+44/48) Accurately ripped
18 [a8c4cbad|20580cac] (04+42/46) Accurately ripped

Track Peak [ CRC32 ] [W/O NULL] [ LOG ]
– 97,7 [0AFD1A71] [212D6880] CRC32
01 97,7 [F9D08429] [26862DB2]
02 96,6 [CCF1803F] [E5A1C9F5]
03 96,6 [B4E9EA3E] [04F4F144]
04 81,8 [49863E37] [933E1908]
05 84,5 [ED015D2D] [8A7B1B75]
06 97,7 [559801A8] [2EA2E09B]
07 94,4 [67BD98F6] [60D0F99E]
08 93,9 [27D32304] [B1A4C7E0]
09 96,6 [D8402FEE] [15B586B1]
10 91,1 [2073203E] [45C13CD1]
11 97,7 [0C750D32] [D2EC363F]
12 87,0 [8911CC95] [B7B488E8]
13 88,0 [9E20A216] [CCB8F6F8]
14 89,0 [812296F3] [4BE828BB]
15 93,3 [9C15A570] [C10F7918]
16 94,4 [8B252215] [137234A9]
17 95,5 [043D0396] [838A9439]
18 97,7 [3C1C773B] [0DFEA04C]


Simple Minds - Celebrate: Greatest Hits (2013) [3CD Box Set] Repost

All thanks go to bvstudio

Simple Minds or Simple Minds in my Blog

Download Simple Minds - Celebrate: Greatest Hits (2013):