Tags
Language
Tags

Skids - The Virgin Years (2015)

Posted By: JET 1
Skids - The Virgin Years (2015)

Skids - The Virgin Years (2015)
EAC Rip | FLAC (Tracks) +CUE, LOG | 2.7 GB | Scans
Genre: Post-Punk, New Wave | Label: Caroline International | Catalog Number: CAROLR013CD

"A “Monster“ of a release – 6 CD’s and 113 tracks covering the Virgin Records career of acclaimed New Wave legends the Skids Disc 1 is the No.19 charting debut LP “Sacred To Dance” complete with eight bonus tracks and including the hit singles “Sweet Suburbia” (No.70) and “The Saints Are Coming” (No.48) and “Into The Valley” (No.10). The second disc features the original “Days In Europa” album which hit No.32 back in 1979 and includes hit 45’s like “Charade” (No.31) and “Working For The Yankee Dollar” (No.20) as well as the bonus of a version of Mott The Hoople’s “All The Young Dudes” from a BBC Radio 1 Kid Jensen session. Disc three is the No.9 charting “The Absolute Game” album complete with the bonus “Strength Through Joy” LP. Includes UK hit singles “Circus Games” (No.32), “Goodbye Civilian” (No.52) and “Woman In Winter” (No.49). The bands fourth album “Joy” has never before been issued on CD so here it is on Disc 4 along with six bonus tracks! Disc 5 sees for the first time on CD the remixed version of the “Days In Europa” album which includes the hit single “Masquerade” (No.14). Also included is the BBC In Concert show from March 1979. Disc 6 is another Skids collectors dream – all five of the bands sessions for John Peel! The twenty one tracks include many never re-recorded by the band and all are appearing here on CD for the first time. Add in a detailed 40 page booklet with detailed sleeve notes by band devotee Tim Barr and all overseen by the official website and you have the Ultimate Skids release! "
Exact Audio Copy V1.1 from 23. June 2015

EAC extraction logfile from 30. December 2015, 22:10

Skids / Scared To Dance (The Virgin Years 2015)

Used drive : Optiarc BD ROM BC-5500S Adapter: 1 ID: 0

Read mode : Secure
Utilize accurate stream : Yes
Defeat audio cache : Yes
Make use of C2 pointers : No

Read offset correction : 48
Overread into Lead-In and Lead-Out : No
Fill up missing offset samples with silence : Yes
Delete leading and trailing silent blocks : No
Null samples used in CRC calculations : Yes
Used interface : Native Win32 interface for Win NT & 2000
Gap handling : Appended to previous track

Used output format : User Defined Encoder
Selected bitrate : 1024 kBit/s
Quality : High
Add ID3 tag : No
Command line compressor : C:\Program Files\Exact Audio Copy\Flac\flac.exe
Additional command line options : -8 -V -T "ARTIST=%artist%" -T "TITLE=%title%" -T "ALBUM=%albumtitle%" -T "DATE=%year%" -T "TRACKNUMBER=%tracknr%" -T "GENRE=%genre%" -T "PERFORMER=%albuminterpret%" -T "COMPOSER=%composer%" %haslyrics%–tag-from-file=LYRICS="%lyricsfile%"%haslyrics% -T "ALBUMARTIST=%albumartist%" -T "DISCNUMBER=%cdnumber%" -T "TOTALDISCS=%totalcds%" -T "TOTALTRACKS=%numtracks%" -T "COMMENT=%comment%" %source% -o %dest%


TOC of the extracted CD

Track | Start | Length | Start sector | End sector
––––––––––––––––––––––––––––-
1 | 0:00.00 | 3:17.67 | 0 | 14841
2 | 3:17.67 | 3:18.44 | 14842 | 29735
3 | 6:36.36 | 2:26.61 | 29736 | 40746
4 | 9:03.22 | 3:32.18 | 40747 | 56664
5 | 12:35.40 | 3:03.36 | 56665 | 70425
6 | 15:39.01 | 3:18.31 | 70426 | 85306
7 | 18:57.32 | 2:37.30 | 85307 | 97111
8 | 21:34.62 | 2:09.33 | 97112 | 106819
9 | 23:44.20 | 4:01.18 | 106820 | 124912
10 | 27:45.38 | 2:38.67 | 124913 | 136829
11 | 30:24.30 | 2:47.08 | 136830 | 149362
12 | 33:11.38 | 4:44.35 | 149363 | 170697
13 | 37:55.73 | 2:31.64 | 170698 | 182086
14 | 40:27.62 | 1:55.09 | 182087 | 190720
15 | 42:22.71 | 2:39.49 | 190721 | 202694
16 | 45:02.45 | 2:43.65 | 202695 | 214984
17 | 47:46.35 | 2:14.46 | 214985 | 225080
18 | 50:01.06 | 2:34.39 | 225081 | 236669
19 | 52:35.45 | 2:09.30 | 236670 | 246374
20 | 54:45.00 | 2:04.67 | 246375 | 255741


Track 1

Filename G:\What.CD Torrents\Skids - The Virgin Years (FLAC)\Disc 1 Scared To Dance\01 - Into the Valley.wav

Pre-gap length 0:00:02.00

Peak level 90.0 %
Extraction speed 0.9 X
Track quality 99.9 %
Test CRC 0FD7010B
Copy CRC 0FD7010B
Accurately ripped (confidence 1) [862153C0] (AR v2)
Copy OK

Track 2

Filename G:\What.CD Torrents\Skids - The Virgin Years (FLAC)\Disc 1 Scared To Dance\02 - Scared To Dance.wav

Peak level 89.2 %
Extraction speed 1.2 X
Track quality 100.0 %
Test CRC E3E087DF
Copy CRC E3E087DF
Accurately ripped (confidence 1) [4E51E7AC] (AR v2)
Copy OK

Track 3

Filename G:\What.CD Torrents\Skids - The Virgin Years (FLAC)\Disc 1 Scared To Dance\03 - Of One Skin.wav

Peak level 89.6 %
Extraction speed 1.2 X
Track quality 100.0 %
Test CRC 5CBFB91C
Copy CRC 5CBFB91C
Accurately ripped (confidence 1) [62374F9E] (AR v2)
Copy OK

Track 4

Filename G:\What.CD Torrents\Skids - The Virgin Years (FLAC)\Disc 1 Scared To Dance\04 - Dossier (of Fallibility).wav

Peak level 89.3 %
Extraction speed 1.4 X
Track quality 100.0 %
Test CRC E07CDFA3
Copy CRC E07CDFA3
Accurately ripped (confidence 1) [D6E5A974] (AR v2)
Copy OK

Track 5

Filename G:\What.CD Torrents\Skids - The Virgin Years (FLAC)\Disc 1 Scared To Dance\05 - Malencholy Soldiers.wav

Peak level 89.7 %
Extraction speed 1.4 X
Track quality 100.0 %
Test CRC 1965C5A0
Copy CRC 1965C5A0
Accurately ripped (confidence 1) [BD390929] (AR v2)
Copy OK

Track 6

Filename G:\What.CD Torrents\Skids - The Virgin Years (FLAC)\Disc 1 Scared To Dance\06 - Hope And Glory.wav

Peak level 89.4 %
Extraction speed 1.5 X
Track quality 100.0 %
Test CRC 83692AE8
Copy CRC 83692AE8
Accurately ripped (confidence 1) [0F7D8757] (AR v2)
Copy OK

Track 7

Filename G:\What.CD Torrents\Skids - The Virgin Years (FLAC)\Disc 1 Scared To Dance\07 - The Saints Are Coming.wav

Peak level 89.3 %
Extraction speed 1.5 X
Track quality 100.0 %
Test CRC 9EF4E85E
Copy CRC 9EF4E85E
Accurately ripped (confidence 1) [D4D29AA1] (AR v2)
Copy OK

Track 8

Filename G:\What.CD Torrents\Skids - The Virgin Years (FLAC)\Disc 1 Scared To Dance\08 - Six Times.wav

Peak level 89.8 %
Extraction speed 1.2 X
Track quality 99.9 %
Test CRC EF41CBE8
Copy CRC EF41CBE8
Accurately ripped (confidence 1) [7B578AC4] (AR v2)
Copy OK

Track 9

Filename G:\What.CD Torrents\Skids - The Virgin Years (FLAC)\Disc 1 Scared To Dance\09 - Calling the Tune.wav

Peak level 89.5 %
Extraction speed 1.7 X
Track quality 100.0 %
Test CRC 16912E22
Copy CRC 16912E22
Accurately ripped (confidence 1) [BEA34CA2] (AR v2)
Copy OK

Track 10

Filename G:\What.CD Torrents\Skids - The Virgin Years (FLAC)\Disc 1 Scared To Dance\10 - Integral Plot.wav

Peak level 89.2 %
Extraction speed 1.7 X
Track quality 100.0 %
Test CRC 9763CB2F
Copy CRC 9763CB2F
Accurately ripped (confidence 1) [6AAEBF4D] (AR v2)
Copy OK

Track 11

Filename G:\What.CD Torrents\Skids - The Virgin Years (FLAC)\Disc 1 Scared To Dance\11 - Charles.wav

Peak level 89.6 %
Extraction speed 1.8 X
Track quality 100.0 %
Test CRC AC71D105
Copy CRC AC71D105
Accurately ripped (confidence 1) [AAB0D00A] (AR v2)
Copy OK

Track 12

Filename G:\What.CD Torrents\Skids - The Virgin Years (FLAC)\Disc 1 Scared To Dance\12 - Scale.wav

Peak level 89.8 %
Extraction speed 2.0 X
Track quality 100.0 %
Test CRC 01C60C8B
Copy CRC 01C60C8B
Accurately ripped (confidence 1) [7963E9EF] (AR v2)
Copy OK

Track 13

Filename G:\What.CD Torrents\Skids - The Virgin Years (FLAC)\Disc 1 Scared To Dance\13 - Sweet Suburbia.wav

Peak level 89.3 %
Extraction speed 1.9 X
Track quality 100.0 %
Test CRC 1A2B124B
Copy CRC 1A2B124B
Accurately ripped (confidence 1) [51FBDA5A] (AR v2)
Copy OK

Track 14

Filename G:\What.CD Torrents\Skids - The Virgin Years (FLAC)\Disc 1 Scared To Dance\14 - Open Sound.wav

Peak level 89.4 %
Extraction speed 1.7 X
Track quality 100.0 %
Test CRC 3B838A20
Copy CRC 3B838A20
Accurately ripped (confidence 1) [8BCE53E3] (AR v2)
Copy OK

Track 15

Filename G:\What.CD Torrents\Skids - The Virgin Years (FLAC)\Disc 1 Scared To Dance\15 - Night And Day.wav

Peak level 89.3 %
Extraction speed 1.9 X
Track quality 100.0 %
Test CRC D145B4B5
Copy CRC D145B4B5
Accurately ripped (confidence 1) [085C57FC] (AR v2)
Copy OK

Track 16

Filename G:\What.CD Torrents\Skids - The Virgin Years (FLAC)\Disc 1 Scared To Dance\16 - Contusion.wav

Peak level 89.9 %
Extraction speed 2.0 X
Track quality 100.0 %
Test CRC CA9D9FF2
Copy CRC CA9D9FF2
Accurately ripped (confidence 1) [B8A24068] (AR v2)
Copy OK

Track 17

Filename G:\What.CD Torrents\Skids - The Virgin Years (FLAC)\Disc 1 Scared To Dance\17 - T.V. Stars (live at the Marquee).wav

Peak level 89.3 %
Extraction speed 2.0 X
Track quality 100.0 %
Test CRC C915CDC1
Copy CRC C915CDC1
Accurately ripped (confidence 1) [E0C4C019] (AR v2)
Copy OK

Track 18

Filename G:\What.CD Torrents\Skids - The Virgin Years (FLAC)\Disc 1 Scared To Dance\18 - Charles.wav

Peak level 89.7 %
Extraction speed 2.1 X
Track quality 100.0 %
Test CRC 2DABE346
Copy CRC 2DABE346
Accurately ripped (confidence 1) [8EB436AE] (AR v2)
Copy OK

Track 19

Filename G:\What.CD Torrents\Skids - The Virgin Years (FLAC)\Disc 1 Scared To Dance\19 - Reasons.wav

Peak level 90.0 %
Extraction speed 2.0 X
Track quality 100.0 %
Test CRC 21DD69D1
Copy CRC 21DD69D1
Accurately ripped (confidence 1) [709E0D62] (AR v2)
Copy OK

Track 20

Filename G:\What.CD Torrents\Skids - The Virgin Years (FLAC)\Disc 1 Scared To Dance\20 - Test Tube Babies.wav

Peak level 89.3 %
Extraction speed 2.0 X
Track quality 100.0 %
Test CRC 55F50F56
Copy CRC 55F50F56
Accurately ripped (confidence 1) [1CF5DB77] (AR v2)
Copy OK


All tracks accurately ripped

No errors occurred

End of status report

–– CUETools DB Plugin V2.1.6

[CTDB TOCID: fiVMWZ5AvD0rdS0P3FDzDhjJ7Mk-] found
Submit result: fiVMWZ5AvD0rdS0P3FDzDhjJ7Mk- has been confirmed
Track | CTDB Status
1 | (3/3) Accurately ripped
2 | (3/3) Accurately ripped
3 | (2/3) Accurately ripped, or (1/3) differs in 180 samples @01:45:66
4 | (3/3) Accurately ripped
5 | (2/3) Accurately ripped, or (1/3) differs in 180 samples @00:11:38
6 | (3/3) Accurately ripped
7 | (3/3) Accurately ripped
8 | (3/3) Accurately ripped
9 | (3/3) Accurately ripped
10 | (3/3) Accurately ripped
11 | (3/3) Accurately ripped
12 | (3/3) Accurately ripped
13 | (3/3) Accurately ripped
14 | (3/3) Accurately ripped
15 | (3/3) Accurately ripped
16 | (3/3) Accurately ripped
17 | (2/3) Accurately ripped, or (1/3) differs in 180 samples @00:36:35
18 | (3/3) Accurately ripped
19 | (2/3) Accurately ripped, or (1/3) differs in 180 samples @01:03:39
20 | (3/3) Accurately ripped


==== Log checksum BB7A7D97C5F30F5AAC70244FB98FB02783F0D94FE9861A6500C124BEC9E084F7 ====

Exact Audio Copy V1.1 from 23. June 2015

EAC extraction logfile from 31. December 2015, 0:13

Skids / Days In Europa (The Virgin Years 2015)

Used drive : Optiarc BD ROM BC-5500S Adapter: 1 ID: 0

Read mode : Secure
Utilize accurate stream : Yes
Defeat audio cache : Yes
Make use of C2 pointers : No

Read offset correction : 48
Overread into Lead-In and Lead-Out : No
Fill up missing offset samples with silence : Yes
Delete leading and trailing silent blocks : No
Null samples used in CRC calculations : Yes
Used interface : Native Win32 interface for Win NT & 2000
Gap handling : Appended to previous track

Used output format : User Defined Encoder
Selected bitrate : 1024 kBit/s
Quality : High
Add ID3 tag : No
Command line compressor : C:\Program Files\Exact Audio Copy\Flac\flac.exe
Additional command line options : -8 -V -T "ARTIST=%artist%" -T "TITLE=%title%" -T "ALBUM=%albumtitle%" -T "DATE=%year%" -T "TRACKNUMBER=%tracknr%" -T "GENRE=%genre%" -T "PERFORMER=%albuminterpret%" -T "COMPOSER=%composer%" %haslyrics%–tag-from-file=LYRICS="%lyricsfile%"%haslyrics% -T "ALBUMARTIST=%albumartist%" -T "DISCNUMBER=%cdnumber%" -T "TOTALDISCS=%totalcds%" -T "TOTALTRACKS=%numtracks%" -T "COMMENT=%comment%" %source% -o %dest%


TOC of the extracted CD

Track | Start | Length | Start sector | End sector
––––––––––––––––––––––––––––-
1 | 0:00.00 | 4:49.67 | 0 | 21741
2 | 4:49.67 | 3:54.55 | 21742 | 39346
3 | 8:44.47 | 4:07.02 | 39347 | 57873
4 | 12:51.49 | 3:19.43 | 57874 | 72841
5 | 16:11.17 | 5:07.25 | 72842 | 95891
6 | 21:18.42 | 4:55.14 | 95892 | 118030
7 | 26:13.56 | 3:30.60 | 118031 | 133840
8 | 29:44.41 | 4:07.00 | 133841 | 152365
9 | 33:51.41 | 3:03.20 | 152366 | 166110
10 | 36:54.61 | 5:04.45 | 166111 | 188955
11 | 41:59.31 | 4:16.41 | 188956 | 208196
12 | 46:15.72 | 3:01.19 | 208197 | 221790
13 | 49:17.16 | 2:59.05 | 221791 | 235220
14 | 52:16.21 | 4:37.55 | 235221 | 256050
15 | 56:54.01 | 4:39.21 | 256051 | 276996
16 | 61:33.22 | 3:24.30 | 276997 | 292326


Track 1

Filename G:\What.CD Torrents\Skids - The Virgin Years (FLAC)\Disc 2 Days In Europa\01 - Animation.wav

Pre-gap length 0:00:02.00

Peak level 89.1 %
Extraction speed 1.2 X
Track quality 100.0 %
Test CRC 1CF94139
Copy CRC 1CF94139
Accurately ripped (confidence 1) [549FB16C] (AR v2)
Copy OK

Track 2

Filename G:\What.CD Torrents\Skids - The Virgin Years (FLAC)\Disc 2 Days In Europa\02 - Charade.wav

Peak level 89.1 %
Extraction speed 1.1 X
Track quality 99.9 %
Test CRC 727B12C8
Copy CRC 727B12C8
Accurately ripped (confidence 1) [0E85BDD7] (AR v2)
Copy OK

Track 3

Filename G:\What.CD Torrents\Skids - The Virgin Years (FLAC)\Disc 2 Days In Europa\03 - Dulce Et Decorum Est (Pro Patria Mori).wav

Peak level 89.1 %
Extraction speed 1.4 X
Track quality 100.0 %
Test CRC F7D817EE
Copy CRC F7D817EE
Accurately ripped (confidence 1) [10631426] (AR v2)
Copy OK

Track 4

Filename G:\What.CD Torrents\Skids - The Virgin Years (FLAC)\Disc 2 Days In Europa\04 - Pros And Cons.wav

Peak level 89.1 %
Extraction speed 1.5 X
Track quality 100.0 %
Test CRC EB45DFB4
Copy CRC EB45DFB4
Accurately ripped (confidence 1) [F524245A] (AR v2)
Copy OK

Track 5

Filename G:\What.CD Torrents\Skids - The Virgin Years (FLAC)\Disc 2 Days In Europa\05 - Home of the Saved.wav

Peak level 89.1 %
Extraction speed 1.6 X
Track quality 100.0 %
Test CRC 805E7AB2
Copy CRC 805E7AB2
Accurately ripped (confidence 1) [119C1326] (AR v2)
Copy OK

Track 6

Filename G:\What.CD Torrents\Skids - The Virgin Years (FLAC)\Disc 2 Days In Europa\06 - Working For the Yankee Dollar.wav

Peak level 89.1 %
Extraction speed 1.8 X
Track quality 100.0 %
Test CRC FA150B5C
Copy CRC FA150B5C
Accurately ripped (confidence 1) [270D2522] (AR v2)
Copy OK

Track 7

Filename G:\What.CD Torrents\Skids - The Virgin Years (FLAC)\Disc 2 Days In Europa\07 - The Olympian.wav

Peak level 89.1 %
Extraction speed 1.5 X
Track quality 99.9 %
Test CRC 2675E91C
Copy CRC 2675E91C
Accurately ripped (confidence 1) [FE430A13] (AR v2)
Copy OK

Track 8

Filename G:\What.CD Torrents\Skids - The Virgin Years (FLAC)\Disc 2 Days In Europa\08 - Thanatos.wav

Peak level 89.1 %
Extraction speed 1.7 X
Track quality 99.9 %
Test CRC 9C6E1C99
Copy CRC 9C6E1C99
Accurately ripped (confidence 1) [26F84029] (AR v2)
Copy OK

Track 9

Filename G:\What.CD Torrents\Skids - The Virgin Years (FLAC)\Disc 2 Days In Europa\09 - A Day In Europa.wav

Peak level 89.1 %
Extraction speed 1.6 X
Track quality 99.9 %
Test CRC D40815B7
Copy CRC D40815B7
Accurately ripped (confidence 1) [0821A52D] (AR v2)
Copy OK

Track 10

Filename G:\What.CD Torrents\Skids - The Virgin Years (FLAC)\Disc 2 Days In Europa\10 - Peaceful Times.wav

Peak level 89.1 %
Extraction speed 2.1 X
Track quality 100.0 %
Test CRC DE0AF7B1
Copy CRC DE0AF7B1
Accurately ripped (confidence 1) [8C55A05A] (AR v2)
Copy OK

Track 11

Filename G:\What.CD Torrents\Skids - The Virgin Years (FLAC)\Disc 2 Days In Europa\11 - Out of Town.wav

Peak level 89.3 %
Extraction speed 2.1 X
Track quality 100.0 %
Test CRC 4A0B30EC
Copy CRC 4A0B30EC
Accurately ripped (confidence 1) [F1267E55] (AR v2)
Copy OK

Track 12

Filename G:\What.CD Torrents\Skids - The Virgin Years (FLAC)\Disc 2 Days In Europa\12 - Another Emotion.wav

Peak level 89.3 %
Extraction speed 1.8 X
Track quality 99.9 %
Test CRC 3B63B631
Copy CRC 3B63B631
Accurately ripped (confidence 1) [5D3E6A72] (AR v2)
Copy OK

Track 13

Filename G:\What.CD Torrents\Skids - The Virgin Years (FLAC)\Disc 2 Days In Europa\13 - Afternath Dub.wav

Peak level 89.5 %
Extraction speed 2.1 X
Track quality 100.0 %
Test CRC FC0DF627
Copy CRC FC0DF627
Accurately ripped (confidence 1) [C06F3231] (AR v2)
Copy OK

Track 14

Filename G:\What.CD Torrents\Skids - The Virgin Years (FLAC)\Disc 2 Days In Europa\14 - Grey Parade.wav

Peak level 89.3 %
Extraction speed 2.3 X
Track quality 100.0 %
Test CRC 113D13E9
Copy CRC 113D13E9
Accurately ripped (confidence 1) [F00A5CBE] (AR v2)
Copy OK

Track 15

Filename G:\What.CD Torrents\Skids - The Virgin Years (FLAC)\Disc 2 Days In Europa\15 - Vanguard Crusade.wav

Peak level 89.1 %
Extraction speed 2.4 X
Track quality 100.0 %
Test CRC 31BFEAE5
Copy CRC 31BFEAE5
Accurately ripped (confidence 1) [00924F9B] (AR v2)
Copy OK

Track 16

Filename G:\What.CD Torrents\Skids - The Virgin Years (FLAC)\Disc 2 Days In Europa\16 - All the Young Dudes (Kid Jensen session).wav

Peak level 89.1 %
Extraction speed 2.4 X
Track quality 100.0 %
Test CRC 8DBDFA42
Copy CRC 8DBDFA42
Accurately ripped (confidence 1) [8111506E] (AR v2)
Copy OK


All tracks accurately ripped

No errors occurred

End of status report

–– CUETools DB Plugin V2.1.6

[CTDB TOCID: oBfLtkW1.ZSbSaGDCKbdqhAcL5Y-] found
Submit result: oBfLtkW1.ZSbSaGDCKbdqhAcL5Y- has been confirmed
Track | CTDB Status
1 | (3/3) Accurately ripped
2 | (2/3) Accurately ripped, or (1/3) differs in 180 samples @01:13:71
3 | (3/3) Accurately ripped
4 | (3/3) Accurately ripped
5 | (2/3) Accurately ripped, or (1/3) differs in 9 samples @05:06:11-05:06:12
6 | (2/3) Accurately ripped, or (1/3) differs in 180 samples @01:08:58
7 | (2/3) Accurately ripped, or (1/3) differs in 180 samples @00:37:00
8 | (3/3) Accurately ripped
9 | (2/3) Accurately ripped, or (1/3) differs in 360 samples @00:28:03,02:33:50
10 | (3/3) Accurately ripped
11 | (3/3) Accurately ripped
12 | (3/3) Accurately ripped
13 | (3/3) Accurately ripped
14 | (3/3) Accurately ripped
15 | (3/3) Accurately ripped
16 | (3/3) Accurately ripped


==== Log checksum 66871A435412EC2F3BF2B4A474C3CDE7FB946E42B7550AA8A51E31E30D8620AD ====

Exact Audio Copy V1.1 from 23. June 2015

EAC extraction logfile from 31. December 2015, 8:57

Skids / The Absolute Game (The Virgin Years 2015)

Used drive : Optiarc BD ROM BC-5500S Adapter: 1 ID: 0

Read mode : Secure
Utilize accurate stream : Yes
Defeat audio cache : Yes
Make use of C2 pointers : No

Read offset correction : 48
Overread into Lead-In and Lead-Out : No
Fill up missing offset samples with silence : Yes
Delete leading and trailing silent blocks : No
Null samples used in CRC calculations : Yes
Used interface : Native Win32 interface for Win NT & 2000
Gap handling : Appended to previous track

Used output format : User Defined Encoder
Selected bitrate : 1024 kBit/s
Quality : High
Add ID3 tag : No
Command line compressor : C:\Program Files\Exact Audio Copy\Flac\flac.exe
Additional command line options : -8 -V -T "ARTIST=%artist%" -T "TITLE=%title%" -T "ALBUM=%albumtitle%" -T "DATE=%year%" -T "TRACKNUMBER=%tracknr%" -T "GENRE=%genre%" -T "PERFORMER=%albuminterpret%" -T "COMPOSER=%composer%" %haslyrics%–tag-from-file=LYRICS="%lyricsfile%"%haslyrics% -T "ALBUMARTIST=%albumartist%" -T "DISCNUMBER=%cdnumber%" -T "TOTALDISCS=%totalcds%" -T "TOTALTRACKS=%numtracks%" -T "COMMENT=%comment%" %source% -o %dest%


TOC of the extracted CD

Track | Start | Length | Start sector | End sector
––––––––––––––––––––––––––––-
1 | 0:00.00 | 3:51.42 | 0 | 17366
2 | 3:51.42 | 4:07.54 | 17367 | 35945
3 | 7:59.21 | 4:16.28 | 35946 | 55173
4 | 12:15.49 | 3:40.13 | 55174 | 71686
5 | 15:55.62 | 5:55.26 | 71687 | 98337
6 | 21:51.13 | 3:42.16 | 98338 | 115003
7 | 25:33.29 | 3:35.62 | 115004 | 131190
8 | 29:09.16 | 5:33.08 | 131191 | 156173
9 | 34:42.24 | 3:24.13 | 156174 | 171486
10 | 38:06.37 | 5:22.54 | 171487 | 195690
11 | 43:29.16 | 4:06.44 | 195691 | 214184
12 | 47:35.60 | 3:29.11 | 214185 | 229870
13 | 51:04.71 | 2:51.26 | 229871 | 242721
14 | 53:56.22 | 3:33.72 | 242722 | 258768
15 | 57:30.19 | 3:21.09 | 258769 | 273852
16 | 60:51.28 | 1:49.37 | 273853 | 282064
17 | 62:40.65 | 3:36.67 | 282065 | 298331
18 | 66:17.57 | 1:49.26 | 298332 | 306532
19 | 68:07.08 | 3:58.15 | 306533 | 324397
20 | 72:05.23 | 2:03.64 | 324398 | 333686
21 | 74:09.12 | 2:36.68 | 333687 | 345454


Track 1

Filename G:\What.CD Torrents\Skids - The Virgin Years (FLAC)\Disc 3 The Absolute Game\01 - Circus Games.wav

Pre-gap length 0:00:02.00

Peak level 89.1 %
Extraction speed 1.3 X
Track quality 100.0 %
Test CRC F2BF7CE2
Copy CRC F2BF7CE2
Accurately ripped (confidence 1) [56AE9061] (AR v2)
Copy OK

Track 2

Filename G:\What.CD Torrents\Skids - The Virgin Years (FLAC)\Disc 3 The Absolute Game\02 - Out of Town.wav

Peak level 89.1 %
Extraction speed 1.4 X
Track quality 100.0 %
Test CRC 136B6BF3
Copy CRC 136B6BF3
Accurately ripped (confidence 1) [70B0EF16] (AR v2)
Copy OK

Track 3

Filename G:\What.CD Torrents\Skids - The Virgin Years (FLAC)\Disc 3 The Absolute Game\03 - Goodbye Civilian.wav

Peak level 89.1 %
Extraction speed 1.5 X
Track quality 100.0 %
Test CRC 8A64D2F9
Copy CRC 8A64D2F9
Accurately ripped (confidence 1) [6E278263] (AR v2)
Copy OK

Track 4

Filename G:\What.CD Torrents\Skids - The Virgin Years (FLAC)\Disc 3 The Absolute Game\04 - The Children Saw the Shame.wav

Peak level 89.1 %
Extraction speed 1.6 X
Track quality 100.0 %
Test CRC 930F0F57
Copy CRC 930F0F57
Accurately ripped (confidence 1) [D0F36A8C] (AR v2)
Copy OK

Track 5

Filename G:\What.CD Torrents\Skids - The Virgin Years (FLAC)\Disc 3 The Absolute Game\05 - A Woman In Winter.wav

Peak level 89.1 %
Extraction speed 1.8 X
Track quality 100.0 %
Test CRC 8A5C9FB9
Copy CRC 8A5C9FB9
Accurately ripped (confidence 1) [0579229D] (AR v2)
Copy OK

Track 6

Filename G:\What.CD Torrents\Skids - The Virgin Years (FLAC)\Disc 3 The Absolute Game\06 - Hurry On Boys.wav

Peak level 89.1 %
Extraction speed 1.8 X
Track quality 100.0 %
Test CRC 26965BB0
Copy CRC 26965BB0
Accurately ripped (confidence 1) [F3DF015C] (AR v2)
Copy OK

Track 7

Filename G:\What.CD Torrents\Skids - The Virgin Years (FLAC)\Disc 3 The Absolute Game\07 - Happy To Be With You.wav

Peak level 89.1 %
Extraction speed 1.8 X
Track quality 100.0 %
Test CRC 1EF24A1C
Copy CRC 1EF24A1C
Accurately ripped (confidence 1) [68E1113D] (AR v2)
Copy OK

Track 8

Filename G:\What.CD Torrents\Skids - The Virgin Years (FLAC)\Disc 3 The Absolute Game\08 - The Devils Decade.wav

Peak level 89.1 %
Extraction speed 2.1 X
Track quality 100.0 %
Test CRC 058BFEA6
Copy CRC 058BFEA6
Accurately ripped (confidence 1) [989A71EA] (AR v2)
Copy OK

Track 9

Filename G:\What.CD Torrents\Skids - The Virgin Years (FLAC)\Disc 3 The Absolute Game\09 - One Decree.wav

Peak level 89.1 %
Extraction speed 1.8 X
Track quality 99.9 %
Test CRC 73312FA9
Copy CRC 73312FA9
Accurately ripped (confidence 1) [75B6C191] (AR v2)
Copy OK

Track 10

Filename G:\What.CD Torrents\Skids - The Virgin Years (FLAC)\Disc 3 The Absolute Game\10 - Arena.wav

Peak level 89.1 %
Extraction speed 2.0 X
Track quality 99.9 %
Test CRC 6C999B1E
Copy CRC 6C999B1E
Accurately ripped (confidence 1) [88BA593D] (AR v2)
Copy OK

Track 11

Filename G:\What.CD Torrents\Skids - The Virgin Years (FLAC)\Disc 3 The Absolute Game\11 - Circus Games (7'' version).wav

Peak level 89.1 %
Extraction speed 2.2 X
Track quality 100.0 %
Test CRC 13788763
Copy CRC 13788763
Accurately ripped (confidence 1) [080EAC75] (AR v2)
Copy OK

Track 12

Filename G:\What.CD Torrents\Skids - The Virgin Years (FLAC)\Disc 3 The Absolute Game\12 - Goodbye Civilian (7'' version).wav

Peak level 89.1 %
Extraction speed 2.0 X
Track quality 99.9 %
Test CRC 5CDB864C
Copy CRC 5CDB864C
Accurately ripped (confidence 1) [459D6D67] (AR v2)
Copy OK

Track 13

Filename G:\What.CD Torrents\Skids - The Virgin Years (FLAC)\Disc 3 The Absolute Game\13 - Monkey McGuire Meets Specky Potter Behind Lochore Institute.wav

Peak level 89.1 %
Extraction speed 2.2 X
Track quality 100.0 %
Test CRC 54F6482A
Copy CRC 54F6482A
Accurately ripped (confidence 1) [02D8E734] (AR v2)
Copy OK

Track 14

Filename G:\What.CD Torrents\Skids - The Virgin Years (FLAC)\Disc 3 The Absolute Game\14 - An Incident In Algiers.wav

Peak level 89.1 %
Extraction speed 2.4 X
Track quality 100.0 %
Test CRC 317DC059
Copy CRC 317DC059
Accurately ripped (confidence 1) [2DAF0BFB] (AR v2)
Copy OK

Track 15

Filename G:\What.CD Torrents\Skids - The Virgin Years (FLAC)\Disc 3 The Absolute Game\15 - Grievance.wav

Peak level 89.1 %
Extraction speed 2.4 X
Track quality 100.0 %
Test CRC 61FCD458
Copy CRC 61FCD458
Accurately ripped (confidence 1) [BE51E6E8] (AR v2)
Copy OK

Track 16

Filename G:\What.CD Torrents\Skids - The Virgin Years (FLAC)\Disc 3 The Absolute Game\16 - Strength Thru Joy.wav

Peak level 89.1 %
Extraction speed 2.1 X
Track quality 100.0 %
Test CRC D7A48AFB
Copy CRC D7A48AFB
Accurately ripped (confidence 1) [9BF24845] (AR v2)
Copy OK

Track 17

Filename G:\What.CD Torrents\Skids - The Virgin Years (FLAC)\Disc 3 The Absolute Game\17 - Filming Africa.wav

Peak level 89.1 %
Extraction speed 2.5 X
Track quality 100.0 %
Test CRC 8E1B2672
Copy CRC 8E1B2672
Accurately ripped (confidence 1) [743483F0] (AR v2)
Copy OK

Track 18

Filename G:\What.CD Torrents\Skids - The Virgin Years (FLAC)\Disc 3 The Absolute Game\18 - A Man For All Seasons.wav

Peak level 89.1 %
Extraction speed 2.2 X
Track quality 100.0 %
Test CRC 645DF471
Copy CRC 645DF471
Accurately ripped (confidence 1) [FDD3FBE1] (AR v2)
Copy OK

Track 19

Filename G:\What.CD Torrents\Skids - The Virgin Years (FLAC)\Disc 3 The Absolute Game\19 - Snakes And Ladders.wav

Peak level 89.1 %
Extraction speed 2.6 X
Track quality 100.0 %
Test CRC B7AD0287
Copy CRC B7AD0287
Accurately ripped (confidence 1) [35CA8C94] (AR v2)
Copy OK

Track 20

Filename G:\What.CD Torrents\Skids - The Virgin Years (FLAC)\Disc 3 The Absolute Game\20 - Surgical Triumph.wav

Peak level 89.1 %
Extraction speed 1.9 X
Track quality 99.9 %
Test CRC 6E8FA136
Copy CRC 6E8FA136
Accurately ripped (confidence 1) [C91FD176] (AR v2)
Copy OK

Track 21

Filename G:\What.CD Torrents\Skids - The Virgin Years (FLAC)\Disc 3 The Absolute Game\21 - The Bell Jar.wav

Peak level 89.1 %
Extraction speed 2.5 X
Track quality 100.0 %
Test CRC 1FFB9F14
Copy CRC 1FFB9F14
Accurately ripped (confidence 1) [6B822680] (AR v2)
Copy OK


All tracks accurately ripped

No errors occurred

End of status report

–– CUETools DB Plugin V2.1.6

[CTDB TOCID: BNfLlcT.vFWk.5ymX4E8gPuUSx8-] found
Submit result: BNfLlcT.vFWk.5ymX4E8gPuUSx8- has been confirmed
Track | CTDB Status
1 | (4/4) Accurately ripped
2 | (4/4) Accurately ripped
3 | (3/4) Accurately ripped, or (1/4) differs in 180 samples @01:51:61
4 | (4/4) Accurately ripped
5 | (4/4) Accurately ripped
6 | (4/4) Accurately ripped
7 | (3/4) Accurately ripped, or (1/4) differs in 360 samples @02:18:41,02:44:27
8 | (3/4) Accurately ripped, or (1/4) differs in 179 samples @01:05:00
9 | (4/4) Accurately ripped
10 | (4/4) Accurately ripped
11 | (4/4) Accurately ripped
12 | (4/4) Accurately ripped
13 | (4/4) Accurately ripped
14 | (3/4) Accurately ripped, or (1/4) differs in 180 samples @00:38:58
15 | (4/4) Accurately ripped
16 | (4/4) Accurately ripped
17 | (4/4) Accurately ripped
18 | (4/4) Accurately ripped
19 | (4/4) Accurately ripped
20 | (4/4) Accurately ripped
21 | (4/4) Accurately ripped


==== Log checksum 8943A37A4E8AFE096D847DB4540BFE8F748CA33FD72FA535AE20B1BE481C0171 ====

Exact Audio Copy V1.1 from 23. June 2015

EAC extraction logfile from 31. December 2015, 10:47

Skids / Joy (The Virgin Years 2015)

Used drive : Optiarc BD ROM BC-5500S Adapter: 1 ID: 0

Read mode : Secure
Utilize accurate stream : Yes
Defeat audio cache : Yes
Make use of C2 pointers : No

Read offset correction : 48
Overread into Lead-In and Lead-Out : No
Fill up missing offset samples with silence : Yes
Delete leading and trailing silent blocks : No
Null samples used in CRC calculations : Yes
Used interface : Native Win32 interface for Win NT & 2000
Gap handling : Appended to previous track

Used output format : User Defined Encoder
Selected bitrate : 1024 kBit/s
Quality : High
Add ID3 tag : No
Command line compressor : C:\Program Files\Exact Audio Copy\Flac\flac.exe
Additional command line options : -8 -V -T "ARTIST=%artist%" -T "TITLE=%title%" -T "ALBUM=%albumtitle%" -T "DATE=%year%" -T "TRACKNUMBER=%tracknr%" -T "GENRE=%genre%" -T "PERFORMER=%albuminterpret%" -T "COMPOSER=%composer%" %haslyrics%–tag-from-file=LYRICS="%lyricsfile%"%haslyrics% -T "ALBUMARTIST=%albumartist%" -T "DISCNUMBER=%cdnumber%" -T "TOTALDISCS=%totalcds%" -T "TOTALTRACKS=%numtracks%" -T "COMMENT=%comment%" %source% -o %dest%


TOC of the extracted CD

Track | Start | Length | Start sector | End sector
––––––––––––––––––––––––––––-
1 | 0:00.00 | 4:00.54 | 0 | 18053
2 | 4:00.54 | 6:11.69 | 18054 | 45947
3 | 10:12.48 | 1:12.21 | 45948 | 51368
4 | 11:24.69 | 5:16.49 | 51369 | 75117
5 | 16:41.43 | 6:53.59 | 75118 | 106151
6 | 23:35.27 | 0:43.12 | 106152 | 109388
7 | 24:18.39 | 3:13.54 | 109389 | 123917
8 | 27:32.18 | 5:32.32 | 123918 | 148849
9 | 33:04.50 | 6:14.52 | 148850 | 176951
10 | 39:19.27 | 3:08.11 | 176952 | 191062
11 | 42:27.38 | 4:31.58 | 191063 | 211445
12 | 46:59.21 | 3:22.25 | 211446 | 226620
13 | 50:21.46 | 3:13.51 | 226621 | 241146
14 | 53:35.22 | 5:07.56 | 241147 | 264227
15 | 58:43.03 | 3:32.37 | 264228 | 280164
16 | 62:15.40 | 3:36.31 | 280165 | 296395
17 | 65:51.71 | 6:43.33 | 296396 | 326653


Track 1

Filename G:\What.CD Torrents\Skids - The Virgin Years (FLAC)\Disc 4 Joy\01 - Blood And Soil.wav

Pre-gap length 0:00:02.00

Peak level 89.1 %
Extraction speed 1.3 X
Track quality 100.0 %
Test CRC 3431CEBE
Copy CRC 3431CEBE
Accurately ripped (confidence 1) [9A253BAD] (AR v2)
Copy OK

Track 2

Filename G:\What.CD Torrents\Skids - The Virgin Years (FLAC)\Disc 4 Joy\02 - A Challenge (The Wanderer).wav

Peak level 89.1 %
Extraction speed 1.5 X
Track quality 100.0 %
Test CRC B0874651
Copy CRC B0874651
Accurately ripped (confidence 1) [6142558D] (AR v2)
Copy OK

Track 3

Filename G:\What.CD Torrents\Skids - The Virgin Years (FLAC)\Disc 4 Joy\03 - Men Of Mercy.wav

Peak level 67.1 %
Extraction speed 1.1 X
Track quality 100.0 %
Test CRC D4858CB4
Copy CRC D4858CB4
Accurately ripped (confidence 1) [073D9C6C] (AR v2)
Copy OK

Track 4

Filename G:\What.CD Torrents\Skids - The Virgin Years (FLAC)\Disc 4 Joy\04 - A Memory.wav

Peak level 89.1 %
Extraction speed 1.6 X
Track quality 100.0 %
Test CRC C49BB743
Copy CRC C49BB743
Accurately ripped (confidence 1) [2E659608] (AR v2)
Copy OK

Track 5

Filename G:\What.CD Torrents\Skids - The Virgin Years (FLAC)\Disc 4 Joy\05 - Iona.wav

Peak level 89.1 %
Extraction speed 1.8 X
Track quality 100.0 %
Test CRC 88AD2E43
Copy CRC 88AD2E43
Accurately ripped (confidence 1) [EC62C2BE] (AR v2)
Copy OK

Track 6

Filename G:\What.CD Torrents\Skids - The Virgin Years (FLAC)\Disc 4 Joy\06 - In Fear Of Fire.wav

Peak level 89.1 %
Extraction speed 0.7 X
Track quality 99.7 %
Test CRC 9C34A575
Copy CRC 9C34A575
Accurately ripped (confidence 1) [DE3C42A9] (AR v2)
Copy OK

Track 7

Filename G:\What.CD Torrents\Skids - The Virgin Years (FLAC)\Disc 4 Joy\07 - Brothers.wav

Peak level 89.1 %
Extraction speed 1.8 X
Track quality 100.0 %
Test CRC B880D840
Copy CRC B880D840
Accurately ripped (confidence 1) [F2CB08E4] (AR v2)
Copy OK

Track 8

Filename G:\What.CD Torrents\Skids - The Virgin Years (FLAC)\Disc 4 Joy\08 - And The Band Played Waltzing Matilda (2003 Digital Remaster).wav

Peak level 76.4 %
Extraction speed 2.0 X
Track quality 100.0 %
Test CRC 098C6ED6
Copy CRC 098C6ED6
Accurately ripped (confidence 1) [E5F524AB] (AR v2)
Copy OK

Track 9

Filename G:\What.CD Torrents\Skids - The Virgin Years (FLAC)\Disc 4 Joy\09 - The Man Of The Fall.wav

Peak level 89.1 %
Extraction speed 2.2 X
Track quality 100.0 %
Test CRC 2094F4BA
Copy CRC 2094F4BA
Accurately ripped (confidence 1) [685511BF] (AR v2)
Copy OK

Track 10

Filename G:\What.CD Torrents\Skids - The Virgin Years (FLAC)\Disc 4 Joy\10 - The Sound Of Retreat (Instrumental).wav

Peak level 65.1 %
Extraction speed 2.1 X
Track quality 100.0 %
Test CRC 902361ED
Copy CRC 902361ED
Accurately ripped (confidence 1) [821C06E6] (AR v2)
Copy OK

Track 11

Filename G:\What.CD Torrents\Skids - The Virgin Years (FLAC)\Disc 4 Joy\11 - Fields.wav

Peak level 89.1 %
Extraction speed 2.3 X
Track quality 100.0 %
Test CRC BDF4FB2F
Copy CRC BDF4FB2F
Accurately ripped (confidence 1) [0DAD3FA6] (AR v2)
Copy OK

Track 12

Filename G:\What.CD Torrents\Skids - The Virgin Years (FLAC)\Disc 4 Joy\12 - Iona (7'' Version 1).wav

Peak level 89.1 %
Extraction speed 2.2 X
Track quality 100.0 %
Test CRC 4EBAB776
Copy CRC 4EBAB776
Accurately ripped (confidence 1) [95EEA436] (AR v2)
Copy OK

Track 13

Filename G:\What.CD Torrents\Skids - The Virgin Years (FLAC)\Disc 4 Joy\13 - Blood And Soil (7'' Version).wav

Peak level 89.1 %
Extraction speed 2.3 X
Track quality 100.0 %
Test CRC F8F5C3CB
Copy CRC F8F5C3CB
Accurately ripped (confidence 1) [49EC6712] (AR v2)
Copy OK

Track 14

Filename G:\What.CD Torrents\Skids - The Virgin Years (FLAC)\Disc 4 Joy\14 - Iona (7'' Version 2).wav

Peak level 89.1 %
Extraction speed 2.3 X
Track quality 99.9 %
Test CRC D760437D
Copy CRC D760437D
Accurately ripped (confidence 1) [71CFB734] (AR v2)
Copy OK

Track 15

Filename G:\What.CD Torrents\Skids - The Virgin Years (FLAC)\Disc 4 Joy\15 - Fields (7'' Mix).wav

Peak level 89.1 %
Extraction speed 2.1 X
Track quality 99.9 %
Test CRC 3A7FA10A
Copy CRC 3A7FA10A
Accurately ripped (confidence 1) [A2D77C44] (AR v2)
Copy OK

Track 16

Filename G:\What.CD Torrents\Skids - The Virgin Years (FLAC)\Disc 4 Joy\16 - Brave (7'' Mix).wav

Peak level 89.1 %
Extraction speed 2.5 X
Track quality 100.0 %
Test CRC 5AD95392
Copy CRC 5AD95392
Accurately ripped (confidence 1) [FC2B372C] (AR v2)
Copy OK

Track 17

Filename G:\What.CD Torrents\Skids - The Virgin Years (FLAC)\Disc 4 Joy\17 - Brave (12'' Mix).wav

Peak level 89.1 %
Extraction speed 2.8 X
Track quality 100.0 %
Test CRC C7E498DD
Copy CRC C7E498DD
Accurately ripped (confidence 1) [03830C04] (AR v2)
Copy OK


All tracks accurately ripped

No errors occurred

End of status report

–– CUETools DB Plugin V2.1.6

[CTDB TOCID: _fXJ_0zS3EuiyrfnR0rpBC3sCkg-] found
Submit result: _fXJ_0zS3EuiyrfnR0rpBC3sCkg- has been confirmed
Track | CTDB Status
1 | (3/3) Accurately ripped
2 | (3/3) Accurately ripped
3 | (3/3) Accurately ripped
4 | (3/3) Accurately ripped
5 | (2/3) Accurately ripped, or (1/3) differs in 180 samples @03:15:11
6 | (3/3) Accurately ripped
7 | (3/3) Accurately ripped
8 | (3/3) Accurately ripped
9 | (2/3) Accurately ripped, or (1/3) differs in 180 samples @04:33:53
10 | (3/3) Accurately ripped
11 | (3/3) Accurately ripped
12 | (3/3) Accurately ripped
13 | (3/3) Accurately ripped
14 | (3/3) Accurately ripped
15 | (3/3) Accurately ripped
16 | (3/3) Accurately ripped
17 | (2/3) Accurately ripped, or (1/3) differs in 180 samples @02:27:74


==== Log checksum 24A8A786C1D1B11C7F14CCF1BCEADCA2B9AE34E47F8054069FA737F5AFABF7EC ====

Exact Audio Copy V1.1 from 23. June 2015

EAC extraction logfile from 31. December 2015, 12:09

Skids / Days In Europa (Remix Black Cover) (The Virgin Years 2015)

Used drive : Optiarc BD ROM BC-5500S Adapter: 1 ID: 0

Read mode : Secure
Utilize accurate stream : Yes
Defeat audio cache : Yes
Make use of C2 pointers : No

Read offset correction : 48
Overread into Lead-In and Lead-Out : No
Fill up missing offset samples with silence : Yes
Delete leading and trailing silent blocks : No
Null samples used in CRC calculations : Yes
Used interface : Native Win32 interface for Win NT & 2000
Gap handling : Appended to previous track

Used output format : User Defined Encoder
Selected bitrate : 1024 kBit/s
Quality : High
Add ID3 tag : No
Command line compressor : C:\Program Files\Exact Audio Copy\Flac\flac.exe
Additional command line options : -8 -V -T "ARTIST=%artist%" -T "TITLE=%title%" -T "ALBUM=%albumtitle%" -T "DATE=%year%" -T "TRACKNUMBER=%tracknr%" -T "GENRE=%genre%" -T "PERFORMER=%albuminterpret%" -T "COMPOSER=%composer%" %haslyrics%–tag-from-file=LYRICS="%lyricsfile%"%haslyrics% -T "ALBUMARTIST=%albumartist%" -T "DISCNUMBER=%cdnumber%" -T "TOTALDISCS=%totalcds%" -T "TOTALTRACKS=%numtracks%" -T "COMMENT=%comment%" %source% -o %dest%


TOC of the extracted CD

Track | Start | Length | Start sector | End sector
––––––––––––––––––––––––––––-
1 | 0:00.00 | 4:31.67 | 0 | 20391
2 | 4:31.67 | 4:02.15 | 20392 | 38556
3 | 8:34.07 | 4:41.11 | 38557 | 59642
4 | 13:15.18 | 3:28.07 | 59643 | 75249
5 | 16:43.25 | 4:43.32 | 75250 | 96506
6 | 21:26.57 | 3:39.29 | 96507 | 112960
7 | 25:06.11 | 4:00.36 | 112961 | 130996
8 | 29:06.47 | 2:45.12 | 130997 | 143383
9 | 31:51.59 | 2:58.34 | 143384 | 156767
10 | 34:50.18 | 5:06.15 | 156768 | 179732
11 | 39:56.33 | 2:48.58 | 179733 | 192390
12 | 42:45.16 | 3:18.04 | 192391 | 207244
13 | 46:03.20 | 3:34.12 | 207245 | 223306
14 | 49:37.32 | 2:41.40 | 223307 | 235421
15 | 52:18.72 | 5:11.49 | 235422 | 258795
16 | 57:30.46 | 2:53.67 | 258796 | 271837
17 | 60:24.38 | 3:13.74 | 271838 | 286386
18 | 63:38.37 | 2:17.21 | 286387 | 296682
19 | 65:55.58 | 4:48.69 | 296683 | 318351


Track 1

Filename G:\What.CD Torrents\Skids - The Virgin Years (FLAC)\Disc 5 Dasy In Europa (Remix - Black Cover)\01 - Animation.wav

Pre-gap length 0:00:02.00

Peak level 94.5 %
Extraction speed 2.1 X
Track quality 99.9 %
Test CRC 5AE491CF
Copy CRC 5AE491CF
Accurately ripped (confidence 1) [5F231E04] (AR v2)
Copy OK

Track 2

Filename G:\What.CD Torrents\Skids - The Virgin Years (FLAC)\Disc 5 Dasy In Europa (Remix - Black Cover)\02 - Charade.wav

Peak level 94.5 %
Extraction speed 2.7 X
Track quality 100.0 %
Test CRC 2CBF17F4
Copy CRC 2CBF17F4
Accurately ripped (confidence 1) [65754331] (AR v2)
Copy OK

Track 3

Filename G:\What.CD Torrents\Skids - The Virgin Years (FLAC)\Disc 5 Dasy In Europa (Remix - Black Cover)\03 - Dulce Decorum Est (Pro Patria Mori).wav

Peak level 94.4 %
Extraction speed 3.0 X
Track quality 100.0 %
Test CRC A7FE0829
Copy CRC A7FE0829
Accurately ripped (confidence 1) [0B96C2E8] (AR v2)
Copy OK

Track 4

Filename G:\What.CD Torrents\Skids - The Virgin Years (FLAC)\Disc 5 Dasy In Europa (Remix - Black Cover)\04 - The Olympian.wav

Peak level 94.6 %
Extraction speed 3.0 X
Track quality 100.0 %
Test CRC 8A0A0231
Copy CRC 8A0A0231
Accurately ripped (confidence 1) [9C95C473] (AR v2)
Copy OK

Track 5

Filename G:\What.CD Torrents\Skids - The Virgin Years (FLAC)\Disc 5 Dasy In Europa (Remix - Black Cover)\05 - Home of the Saved.wav

Peak level 94.5 %
Extraction speed 3.4 X
Track quality 100.0 %
Test CRC F0E8FA74
Copy CRC F0E8FA74
Accurately ripped (confidence 1) [BA3FB610] (AR v2)
Copy OK

Track 6

Filename G:\What.CD Torrents\Skids - The Virgin Years (FLAC)\Disc 5 Dasy In Europa (Remix - Black Cover)\06 - Working On the Yankee Dollar.wav

Peak level 94.6 %
Extraction speed 3.5 X
Track quality 100.0 %
Test CRC 78B5A45A
Copy CRC 78B5A45A
Accurately ripped (confidence 1) [54F3127C] (AR v2)
Copy OK

Track 7

Filename G:\What.CD Torrents\Skids - The Virgin Years (FLAC)\Disc 5 Dasy In Europa (Remix - Black Cover)\07 - Thanatos.wav

Peak level 94.5 %
Extraction speed 3.7 X
Track quality 100.0 %
Test CRC 5A8BF82E
Copy CRC 5A8BF82E
Accurately ripped (confidence 1) [79B18124] (AR v2)
Copy OK

Track 8

Filename G:\What.CD Torrents\Skids - The Virgin Years (FLAC)\Disc 5 Dasy In Europa (Remix - Black Cover)\08 - Masquerade.wav

Peak level 94.4 %
Extraction speed 3.6 X
Track quality 100.0 %
Test CRC 97AB0341
Copy CRC 97AB0341
Accurately ripped (confidence 1) [B85F93D1] (AR v2)
Copy OK

Track 9

Filename G:\What.CD Torrents\Skids - The Virgin Years (FLAC)\Disc 5 Dasy In Europa (Remix - Black Cover)\09 - A Day In Europa.wav

Peak level 94.4 %
Extraction speed 3.8 X
Track quality 100.0 %
Test CRC E83E6A94
Copy CRC E83E6A94
Accurately ripped (confidence 1) [11A0EA23] (AR v2)
Copy OK

Track 10

Filename G:\What.CD Torrents\Skids - The Virgin Years (FLAC)\Disc 5 Dasy In Europa (Remix - Black Cover)\10 - Peaceful Times.wav

Peak level 94.5 %
Extraction speed 4.2 X
Track quality 100.0 %
Test CRC 484D958A
Copy CRC 484D958A
Accurately ripped (confidence 1) [F0B0D33E] (AR v2)
Copy OK

Track 11

Filename G:\What.CD Torrents\Skids - The Virgin Years (FLAC)\Disc 5 Dasy In Europa (Remix - Black Cover)\11 - Of One Skin (BBC In Concert, March 1979).wav

Pre-gap length 0:00:02.00

Peak level 94.4 %
Extraction speed 4.0 X
Track quality 100.0 %
Test CRC 0D4587C8
Copy CRC 0D4587C8
Accurately ripped (confidence 1) [33DE467E] (AR v2)
Copy OK

Track 12

Filename G:\What.CD Torrents\Skids - The Virgin Years (FLAC)\Disc 5 Dasy In Europa (Remix - Black Cover)\12 - Melancholy Soldiers (BBC In Concert, March 1979).wav

Peak level 94.4 %
Extraction speed 4.2 X
Track quality 100.0 %
Test CRC 04A3EA7B
Copy CRC 04A3EA7B
Accurately ripped (confidence 1) [D8AB3575] (AR v2)
Copy OK

Track 13

Filename G:\What.CD Torrents\Skids - The Virgin Years (FLAC)\Disc 5 Dasy In Europa (Remix - Black Cover)\13 - Scared To Dance (BBC In Concert, March 1979).wav

Peak level 94.4 %
Extraction speed 4.3 X
Track quality 100.0 %
Test CRC 87CFC27C
Copy CRC 87CFC27C
Accurately ripped (confidence 1) [E67CF2F4] (AR v2)
Copy OK

Track 14

Filename G:\What.CD Torrents\Skids - The Virgin Years (FLAC)\Disc 5 Dasy In Europa (Remix - Black Cover)\14 - Integral Plot (BBC In Concert, March 1979).wav

Peak level 94.4 %
Extraction speed 4.2 X
Track quality 100.0 %
Test CRC 2E38992C
Copy CRC 2E38992C
Accurately ripped (confidence 1) [7E7729B4] (AR v2)
Copy OK

Track 15

Filename G:\What.CD Torrents\Skids - The Virgin Years (FLAC)\Disc 5 Dasy In Europa (Remix - Black Cover)\15 - Scale (BBC In Concert, March 1979).wav

Peak level 94.4 %
Extraction speed 4.8 X
Track quality 100.0 %
Test CRC 577C8543
Copy CRC 577C8543
Accurately ripped (confidence 1) [9DFD04F3] (AR v2)
Copy OK

Track 16

Filename G:\What.CD Torrents\Skids - The Virgin Years (FLAC)\Disc 5 Dasy In Europa (Remix - Black Cover)\16 - Into the Valley (BBC In Concert, March 1979).wav

Peak level 94.4 %
Extraction speed 4.4 X
Track quality 100.0 %
Test CRC C3811E28
Copy CRC C3811E28
Accurately ripped (confidence 1) [4E564A03] (AR v2)
Copy OK

Track 17

Filename G:\What.CD Torrents\Skids - The Virgin Years (FLAC)\Disc 5 Dasy In Europa (Remix - Black Cover)\17 - The Saints Are Coming (BBC In Concert, March 1979).wav

Peak level 94.4 %
Extraction speed 4.7 X
Track quality 100.0 %
Test CRC 344B3906
Copy CRC 344B3906
Accurately ripped (confidence 1) [40D181A9] (AR v2)
Copy OK

Track 18

Filename G:\What.CD Torrents\Skids - The Virgin Years (FLAC)\Disc 5 Dasy In Europa (Remix - Black Cover)\18 - Night And Day (BBC In Concert, March 1979).wav

Peak level 94.4 %
Extraction speed 4.5 X
Track quality 100.0 %
Test CRC 3E31CE06
Copy CRC 3E31CE06
Accurately ripped (confidence 1) [982105B2] (AR v2)
Copy OK

Track 19

Filename G:\What.CD Torrents\Skids - The Virgin Years (FLAC)\Disc 5 Dasy In Europa (Remix - Black Cover)\19 - Walk In the Wild Side (BBC In Concert, March 1979).wav

Peak level 94.4 %
Extraction speed 5.2 X
Track quality 100.0 %
Test CRC 20819FB3
Copy CRC 20819FB3
Accurately ripped (confidence 1) [0A605675] (AR v2)
Copy OK


All tracks accurately ripped

No errors occurred

End of status report

–– CUETools DB Plugin V2.1.6

[CTDB TOCID: S1ven4d6yOT8eRf09julXr3eHow-] found
Submit result: S1ven4d6yOT8eRf09julXr3eHow- has been confirmed
Track | CTDB Status
1 | (4/4) Accurately ripped
2 | (4/4) Accurately ripped
3 | (3/4) Accurately ripped, or (1/4) differs in 540 samples @00:11:01,01:13:41,01:23:50
4 | (4/4) Accurately ripped
5 | (3/4) Accurately ripped, or (1/4) differs in 180 samples @00:24:06
6 | (4/4) Accurately ripped
7 | (4/4) Accurately ripped
8 | (4/4) Accurately ripped
9 | (4/4) Accurately ripped
10 | (4/4) Accurately ripped
11 | (4/4) Accurately ripped
12 | (4/4) Accurately ripped
13 | (4/4) Accurately ripped
14 | (4/4) Accurately ripped
15 | (4/4) Accurately ripped
16 | (4/4) Accurately ripped
17 | (4/4) Accurately ripped
18 | (4/4) Accurately ripped
19 | (4/4) Accurately ripped


==== Log checksum EAAA65AF88D272AE7E496E66D1A6679B3DCD8F28B0BD99672C5353FCF9FA5D70 ====

Exact Audio Copy V1.1 from 23. June 2015

EAC extraction logfile from 31. December 2015, 13:51

Skids / The Peel Sessions (The Virgin Years 2015)

Used drive : Optiarc BD ROM BC-5500S Adapter: 1 ID: 0

Read mode : Secure
Utilize accurate stream : Yes
Defeat audio cache : Yes
Make use of C2 pointers : No

Read offset correction : 48
Overread into Lead-In and Lead-Out : No
Fill up missing offset samples with silence : Yes
Delete leading and trailing silent blocks : No
Null samples used in CRC calculations : Yes
Used interface : Native Win32 interface for Win NT & 2000
Gap handling : Appended to previous track

Used output format : User Defined Encoder
Selected bitrate : 1024 kBit/s
Quality : High
Add ID3 tag : No
Command line compressor : C:\Program Files\Exact Audio Copy\Flac\flac.exe
Additional command line options : -8 -V -T "ARTIST=%artist%" -T "TITLE=%title%" -T "ALBUM=%albumtitle%" -T "DATE=%year%" -T "TRACKNUMBER=%tracknr%" -T "GENRE=%genre%" -T "PERFORMER=%albuminterpret%" -T "COMPOSER=%composer%" %haslyrics%–tag-from-file=LYRICS="%lyricsfile%"%haslyrics% -T "ALBUMARTIST=%albumartist%" -T "DISCNUMBER=%cdnumber%" -T "TOTALDISCS=%totalcds%" -T "TOTALTRACKS=%numtracks%" -T "COMMENT=%comment%" %source% -o %dest%


TOC of the extracted CD

Track | Start | Length | Start sector | End sector
––––––––––––––––––––––––––––-
1 | 0:00.00 | 2:34.25 | 0 | 11574
2 | 2:34.25 | 1:51.47 | 11575 | 19946
3 | 4:25.72 | 2:48.64 | 19947 | 32610
4 | 7:14.61 | 2:08.36 | 32611 | 42246
5 | 9:23.22 | 1:22.57 | 42247 | 48453
6 | 10:46.04 | 3:27.05 | 48454 | 63983
7 | 14:13.09 | 4:33.20 | 63984 | 84478
8 | 18:46.29 | 2:05.62 | 84479 | 93915
9 | 20:52.16 | 3:14.68 | 93916 | 108533
10 | 24:07.09 | 2:27.17 | 108534 | 119575
11 | 26:34.26 | 3:14.57 | 119576 | 134182
12 | 29:49.08 | 5:21.45 | 134183 | 158302
13 | 35:10.53 | 4:17.15 | 158303 | 177592
14 | 39:27.68 | 3:09.35 | 177593 | 191802
15 | 42:37.28 | 4:47.35 | 191803 | 213362
16 | 47:24.63 | 3:54.51 | 213363 | 230963
17 | 51:19.39 | 2:33.43 | 230964 | 242481
18 | 53:53.07 | 3:43.28 | 242482 | 259234
19 | 57:36.35 | 2:42.40 | 259235 | 271424
20 | 60:19.00 | 4:07.25 | 271425 | 289974
21 | 64:26.25 | 3:11.06 | 289975 | 304305


Track 1

Filename G:\What.CD Torrents\Skids - The Virgin Years (FLAC)\Disc 6 The Peel Session´s\01 - Of One Skin (May 1978).wav

Pre-gap length 0:00:02.00

Peak level 89.1 %
Extraction speed 1.0 X
Track quality 99.9 %
Test CRC F0500A78
Copy CRC F0500A78
Accurately ripped (confidence 1) [231B6191] (AR v2)
Copy OK

Track 2

Filename G:\What.CD Torrents\Skids - The Virgin Years (FLAC)\Disc 6 The Peel Session´s\02 - Open Sound (May 1978).wav

Peak level 89.1 %
Extraction speed 1.1 X
Track quality 100.0 %
Test CRC 3F785599
Copy CRC 3F785599
Accurately ripped (confidence 1) [EF0EFA67] (AR v2)
Copy OK

Track 3

Filename G:\What.CD Torrents\Skids - The Virgin Years (FLAC)\Disc 6 The Peel Session´s\03 - Contusion (May 1978).wav

Peak level 89.1 %
Extraction speed 1.3 X
Track quality 100.0 %
Test CRC B6899605
Copy CRC B6899605
Accurately ripped (confidence 1) [F754157E] (AR v2)
Copy OK

Track 4

Filename G:\What.CD Torrents\Skids - The Virgin Years (FLAC)\Disc 6 The Peel Session´s\04 - Night And Day (May 1978).wav

Peak level 89.1 %
Extraction speed 1.0 X
Track quality 99.9 %
Test CRC 8888B551
Copy CRC 8888B551
Accurately ripped (confidence 1) [5B707B5B] (AR v2)
Copy OK

Track 5

Filename G:\What.CD Torrents\Skids - The Virgin Years (FLAC)\Disc 6 The Peel Session´s\05 - T.V. Stars (May 1978).wav

Peak level 89.1 %
Extraction speed 1.2 X
Track quality 100.0 %
Test CRC D861C85A
Copy CRC D861C85A
Accurately ripped (confidence 1) [C0A53F09] (AR v2)
Copy OK

Track 6

Filename G:\What.CD Torrents\Skids - The Virgin Years (FLAC)\Disc 6 The Peel Session´s\06 - Dossier of Fallibility (September 1978).wav

Peak level 89.1 %
Extraction speed 1.5 X
Track quality 100.0 %
Test CRC BF6A4B93
Copy CRC BF6A4B93
Accurately ripped (confidence 1) [2CCDD31D] (AR v2)
Copy OK

Track 7

Filename G:\What.CD Torrents\Skids - The Virgin Years (FLAC)\Disc 6 The Peel Session´s\07 - Hope And Glory (September 1978).wav

Peak level 89.1 %
Extraction speed 1.7 X
Track quality 100.0 %
Test CRC 5341099F
Copy CRC 5341099F
Accurately ripped (confidence 1) [A854A43E] (AR v2)
Copy OK

Track 8

Filename G:\What.CD Torrents\Skids - The Virgin Years (FLAC)\Disc 6 The Peel Session´s\08 - Six Times (September 1978).wav

Peak level 89.1 %
Extraction speed 1.2 X
Track quality 99.9 %
Test CRC DD7F646C
Copy CRC DD7F646C
Accurately ripped (confidence 1) [D96CD905] (AR v2)
Copy OK

Track 9

Filename G:\What.CD Torrents\Skids - The Virgin Years (FLAC)\Disc 6 The Peel Session´s\09 - The Saints Are Coming (September 1978).wav

Peak level 89.1 %
Extraction speed 1.7 X
Track quality 100.0 %
Test CRC 79A31F73
Copy CRC 79A31F73
Accurately ripped (confidence 1) [B8B63B7E] (AR v2)
Copy OK

Track 10

Filename G:\What.CD Torrents\Skids - The Virgin Years (FLAC)\Disc 6 The Peel Session´s\10 - Summer (February 1979).wav

Peak level 89.1 %
Extraction speed 1.7 X
Track quality 100.0 %
Test CRC 5DFC645B
Copy CRC 5DFC645B
Accurately ripped (confidence 1) [E63BAFAB] (AR v2)
Copy OK

Track 11

Filename G:\What.CD Torrents\Skids - The Virgin Years (FLAC)\Disc 6 The Peel Session´s\11 - Hang On To the Telephone (February 1979).wav

Peak level 89.1 %
Extraction speed 1.8 X
Track quality 100.0 %
Test CRC 25D75B0C
Copy CRC 25D75B0C
Accurately ripped (confidence 1) [938B9BD2] (AR v2)
Copy OK

Track 12

Filename G:\What.CD Torrents\Skids - The Virgin Years (FLAC)\Disc 6 The Peel Session´s\12 - Zit (February 1979).wav

Peak level 89.1 %
Extraction speed 2.0 X
Track quality 100.0 %
Test CRC 169CEFC8
Copy CRC 169CEFC8
Accurately ripped (confidence 1) [63797FB0] (AR v2)
Copy OK

Track 13

Filename G:\What.CD Torrents\Skids - The Virgin Years (FLAC)\Disc 6 The Peel Session´s\13 - Walk On the Wild Side (February 1979).wav

Peak level 89.1 %
Extraction speed 2.1 X
Track quality 100.0 %
Test CRC CD34F96C
Copy CRC CD34F96C
Accurately ripped (confidence 1) [07062B30] (AR v2)
Copy OK

Track 14

Filename G:\What.CD Torrents\Skids - The Virgin Years (FLAC)\Disc 6 The Peel Session´s\14 - War Poets (May 1979).wav

Peak level 89.1 %
Extraction speed 2.1 X
Track quality 100.0 %
Test CRC 80AE581A
Copy CRC 80AE581A
Accurately ripped (confidence 1) [53EA25F0] (AR v2)
Copy OK

Track 15

Filename G:\What.CD Torrents\Skids - The Virgin Years (FLAC)\Disc 6 The Peel Session´s\15 - Withdrawal Symptoms (May 1979).wav

Peak level 89.1 %
Extraction speed 2.0 X
Track quality 99.9 %
Test CRC CC0B8613
Copy CRC CC0B8613
Accurately ripped (confidence 1) [FF31E0D3] (AR v2)
Copy OK

Track 16

Filename G:\What.CD Torrents\Skids - The Virgin Years (FLAC)\Disc 6 The Peel Session´s\16 - Hymns From A Haunted Ballroom (May 1979).wav

Peak level 89.1 %
Extraction speed 2.0 X
Track quality 99.9 %
Test CRC E13070B4
Copy CRC E13070B4
Accurately ripped (confidence 1) [3885FE19] (AR v2)
Copy OK

Track 17

Filename G:\What.CD Torrents\Skids - The Virgin Years (FLAC)\Disc 6 The Peel Session´s\17 - Masquerade (May 1979).wav

Peak level 89.1 %
Extraction speed 2.2 X
Track quality 100.0 %
Test CRC FD551244
Copy CRC FD551244
Accurately ripped (confidence 1) [A438EB79] (AR v2)
Copy OK

Track 18

Filename G:\What.CD Torrents\Skids - The Virgin Years (FLAC)\Disc 6 The Peel Session´s\18 - Filming Africa (September 1980).wav

Peak level 89.1 %
Extraction speed 2.4 X
Track quality 100.0 %
Test CRC 294BB7AF
Copy CRC 294BB7AF
Accurately ripped (confidence 1) [090EA951] (AR v2)
Copy OK

Track 19

Filename G:\What.CD Torrents\Skids - The Virgin Years (FLAC)\Disc 6 The Peel Session´s\19 - An Incident In Algiers (September 1980).wav

Peak level 89.1 %
Extraction speed 2.3 X
Track quality 100.0 %
Test CRC 253B178E
Copy CRC 253B178E
Accurately ripped (confidence 1) [DC1A7993] (AR v2)
Copy OK

Track 20

Filename G:\What.CD Torrents\Skids - The Virgin Years (FLAC)\Disc 6 The Peel Session´s\20 - Circus Games (September 1980).wav

Peak level 89.1 %
Extraction speed 2.2 X
Track quality 99.9 %
Test CRC 31893D56
Copy CRC 31893D56
Accurately ripped (confidence 1) [867F4CA9] (AR v2)
Copy OK

Track 21

Filename G:\What.CD Torrents\Skids - The Virgin Years (FLAC)\Disc 6 The Peel Session´s\21 - Snakes And Ladders (September 1980).wav

Peak level 79.0 %
Extraction speed 2.5 X
Track quality 100.0 %
Test CRC D539DAC2
Copy CRC D539DAC2
Accurately ripped (confidence 1) [CBAC388B] (AR v2)
Copy OK


All tracks accurately ripped

No errors occurred

End of status report

–– CUETools DB Plugin V2.1.6

[CTDB TOCID: iYDR1G_7Macy7PM5_1tYa3WKJF0-] found
Submit result: iYDR1G_7Macy7PM5_1tYa3WKJF0- has been confirmed
Track | CTDB Status
1 | (2/3) Accurately ripped, or (1/3) differs in 180 samples @01:10:28
2 | (3/3) Accurately ripped
3 | (3/3) Accurately ripped
4 | (3/3) Accurately ripped
5 | (3/3) Accurately ripped
6 | (3/3) Accurately ripped
7 | (3/3) Accurately ripped
8 | (2/3) Accurately ripped, or (1/3) differs in 396 samples @00:34:34-00:34:35
9 | (3/3) Accurately ripped
10 | (3/3) Accurately ripped
11 | (3/3) Accurately ripped
12 | (3/3) Accurately ripped
13 | (3/3) Accurately ripped
14 | (3/3) Accurately ripped
15 | (2/3) Accurately ripped, or (1/3) differs in 180 samples @02:05:07
16 | (2/3) Accurately ripped, or (1/3) differs in 180 samples @01:35:56
17 | (3/3) Accurately ripped
18 | (3/3) Accurately ripped
19 | (3/3) Accurately ripped
20 | (2/3) Accurately ripped, or (1/3) differs in 180 samples @02:05:27
21 | (2/3) Accurately ripped, or (1/3) differs in 179 samples @01:44:28


==== Log checksum 132B982EE1037802BF3ECA687CD34CA5D8782D81A6CCEF3BD5B07C982C63C063 ====

Tracklist ::::
Disc: 1
1. Into The Valley
2. Scared To Dance
3. Of One Skin
4. Dossier (Of Fallibility)
5. Melancholy Soldiers
6. Hope And Glory
7. The Saints Are Coming
8. Six Times
9. Calling The Tune
10. Integral Plot
11. Charles
12. Scale
13. Sweet Suburbia (Bonus Track)
14. Open Sound (Bonus Track)
15. Night And Day (Bonus Track)
16. Contusion (Bonus Track)
17. T.V. Stars (Live At The Marquee) (Bonus Track)
18. Charles (Bonus Track)
19. Reasons (Bonus Track)
20. Test Tube Babies (Bonus Track)

Disc: 2
1. Animation
2. Charade
3. Dulce Et Decorum Est (Pro Patria Mori)
4. Pros And Cons
5. Home Of The Saved
6. Working For The Yankee Dollar
7. The Olympian
8. Thanatos
9. A Day In Europa
10. Peaceful Times
11. Out Of Town (Bonus Track)
12. Another Emotion (Bonus Track)
13. Aftermath Dub (Bonus Track)
14. Grey Parade (Bonus Track)
15. Vanguard's Crusade (Bonus Track)
16. All The Young Dudes (Kid Jensen Session)

Disc: 3
1. Circus Games
2. Out Of Town
3. Goodbye Civilian
4. The Children Saw The Shame
5. A Woman In Winter
6. Hurry On Boys
7. Happy To Be With You
8. The Devils Decade
9. One Decree
10. Arena
11. Circus Games (7" Version) (Bonus Track)
12. Goodbye Civilian (7" Version) (Bonus Track)
13. Monkey Mcguire Meets Specky Potter Behind Lochore Institute (Bonus Track)
14. An Incident In Algiers
15. Grievance
16. Strength Thru Joy
17. Filming Africa
18. A Man For All Seasons
19. Snakes And Ladders
20. Surgical Triumph
21. The Bell Jar

Disc: 4
1. Blood And Soil
2. A Challenge (The Wanderer)
3. Men Of Mercy
4. A Memory
5. Iona
6. In Fear Of Fire
7. Brothers
8. And The Band Played Waltzing Matilda
9. The Men Of The Fall
10. The Sound Of Retreat
11. Fields
12. Iona (7" Version 1) (Bonus Track)
13. Blood And Soil (7" Version) (Bonus Track)
14. Iona (7" Version 2) (Bonus Track)
15. Fields (7" Version) (Bonus Track)
16. Brave Man (7" Version) (Bonus Track)
17. Brave Man (12" Version) (Bonus Track)

Disc: 5
1. Animation
2. Charade
3. Dulce Decorum Est (Pro Patria Mori)
4. The Olympian
5. Home Of The Saved
6. Working For The Yankee Dollar
7. Thanatos
8. Masquerade
9. A Day In Europa
10. Peaceful Times
11. Of One Skin (BBC In Concert March 1979)
12. Melancholy Soldiers (BBC In Concert March 1979)
13. Scared To Dance (BBC In Concert March 1979)
14. Integral Plot (BBC In Concert March 1979)
15. Scale (BBC In Concert March 1979)
16. Into The Valley (BBC In Concert March 1979)
17. The Saints Are Coming (BBC In Concert March 1979)
18. Night And Day (BBC In Concert March 1979)
19. Walk On The Wild Side (BBC In Concert March 1979)

Disc: 6
1. Of One Skin (John Peel Session May 1978)
2. Open Sound (John Peel Session May 1978
3. Contusion (John Peel Session May 1978
4. Night And Day (John Peel Session May 1978
5. T.V. Stars (John Peel Session May 1978
6. Dossier Of Fallibility (John Peel Session September 1978)
7. Hope And Glory (John Peel Session September 1978)
8. Six Times (John Peel Session September 1978)
9. The Saints Are Coming (John Peel Session September 1978)
10. Summer (John Peel Session February 1979)
11. Hang On To The Shadows (John Peel Session February 1979)
12. Zit (John Peel Session February 1979)
13. Walk On The Wild Side (John Peel Session February 1979)
14. War Poets (John Peel Session May 1979)
15. Withdrawal Symptoms (John Peel Session May 1979
16. Hymns From A Haunted Ballroom (John Peel Session May 1979
17. Masquerade (John Peel Session May 1979
18. Filming Africa (John Peel Session September 1980)
19. An Incident In Algiers (John Peel Session September 1980)
20. Circus Games (John Peel Session September 1980)
21. Snakes And Ladders (Instrumental) (John Peel Session September 1980)