Subcategories

Sky - Sky 3 (1981) {2015, Bonus DVD} Re-Up

Posted By: popsakov
Sky - Sky 3 (1981) {2015, Bonus DVD} Re-Up

Sky - Sky 3 (1981/2015)
DVD9 | MPEG-2, NTSC 720x480 (4:3), 29.970 fps, ~ 7355 Kbps
LPCM 2.0, 48 KHz, 1536 Kbps | ~ 5,75 Gb | Full Scans | RAR 5% Recovery
Progressive Rock, Instrumental | 01:24:05 | Esoteric Recordigs #ECLEC 22475

CD from this Set -> Sky - Sky 3 (1981) {2015, Remastered}

Esoteric Recordings are pleased to announce the next release in the continuing series of reissues of the entire catalogue by the legendary classical rock band Sky. Formed in 1979, Sky brought together the worlds of rock and classical music in a highly successful and inspiring way. Featuring the gifted talents of guitarist John Williams, percussionist Tristan Fry, legendary bass player Herbie Flowers, former Curved Air keyboard player Francis Monkman and guitarist Kevin Peek, Sky recorded their debut album at Abbey Road studios in the early months of 1979. The band’s self-titled debut reached the UK top ten in May 1979 and went on to achieve Platinum status in the UK and was also a major hit in Europe and Australia. Also a huge live attraction, SKY released their second album in April 1980. "Sky 2” was a fine achievement, featuring the hit single "Toccata”, and topped the UK album charts upon its release. For this, the band’s third album, Steve Gray replaced Francis Monkman on keyboards, but the band continued their run of success as Sky 3 reached the UK top ten upon its release in March 1981.

The album’s success followed a highly memorable concert by the band at Westminster Abbey in London on February 24th 1981, which was recorded and broadcast by BBC Television and later released on home video cassette.

This Esoteric Recordings edition has been newly re-mastered and includes a companion DVD of Sky at Westminster Abbey, (the first ever DVD release of this classic concert). The original album artwork is fully restored and the booklet features a new essay.

***************

Sky - Sky 3 (1981) {2015, Bonus DVD} Re-Up

Track List:

Sky at Westminster Abbey in London on February 24th 1981 by BBC TV

01. The Grace
02. Chiropodie 1
03. Sarabande
04. Sahara
05. Recuerdos De La Alhambra
06. Dance of the Little Fairies
07. Fifo
08. The Swan
09. The Whale
10. Scipio
11. Hello
12. Hotta
13. Keep Me Safe and Keep Me Warm, Shelter Me from Darkness
14. Toccata

General
Complete name : D:\_000\Sky - Sky 3 (1981)[2015] DVD\VIDEO_TS\VTS_01_1.VOB
Format : MPEG-PS
File size : 1 024 MiB
Duration : 15mn 46s
Overall bit rate : 9 071 Kbps

Video
ID : 224 (0xE0)
Format : MPEG Video
Format version : Version 2
Format profile : Main@Main
Format settings, BVOP : Yes
Format settings, Matrix : Custom
Format settings, GOP : M=3, N=15
Duration : 15mn 46s
Bit rate : 7 354 Kbps
Maximum bit rate : 6 600 Kbps
Width : 720 pixels
Height : 480 pixels
Display aspect ratio : 4:3
Frame rate : 29.970 fps
Standard : NTSC
Color space : YUV
Chroma subsampling : 4:2:0
Bit depth : 8 bits
Scan type : Progressive
Compression mode : Lossy
Bits/(Pixel*Frame) : 0.710
Time code of first frame : 00:00:00;00
Time code source : Group of pictures header
GOP, Open/Closed : Open
Stream size : 830 MiB (81%)
GOP, Open/Closed of first frame : Closed

Audio
ID : 189 (0xBD)-160 (0xA0)
Format : PCM
Format settings, Endianness : Big
Format settings, Sign : Signed
Muxing mode : DVD-Video
Duration : 15mn 46s
Bit rate mode : Constant
Bit rate : 1 536 Kbps
Channel(s) : 2 channels
Sampling rate : 48.0 KHz
Bit depth : 24 bits
Stream size : 173 MiB (17%)

Menu

General
Complete name : D:\_000\Sky - Sky 3 (1981)[2015] DVD\VIDEO_TS\VTS_01_2.VOB
Format : MPEG-PS
File size : 1 024 MiB
Duration : 15mn 46s
Overall bit rate : 9 072 Kbps

Video
ID : 224 (0xE0)
Format : MPEG Video
Format version : Version 2
Format profile : Main@Main
Format settings, BVOP : Yes
Format settings, Matrix : Custom
Format settings, GOP : M=3, N=15
Duration : 15mn 46s
Bit rate : 7 355 Kbps
Maximum bit rate : 6 600 Kbps
Width : 720 pixels
Height : 480 pixels
Display aspect ratio : 4:3
Frame rate : 29.970 fps
Standard : NTSC
Color space : YUV
Chroma subsampling : 4:2:0
Bit depth : 8 bits
Scan type : Progressive
Compression mode : Lossy
Bits/(Pixel*Frame) : 0.710
Time code of first frame : 00:15:47;01
Time code source : Group of pictures header
GOP, Open/Closed : Open
Stream size : 830 MiB (81%)

Audio
ID : 189 (0xBD)-160 (0xA0)
Format : PCM
Format settings, Endianness : Big
Format settings, Sign : Signed
Muxing mode : DVD-Video
Duration : 15mn 46s
Bit rate mode : Constant
Bit rate : 1 536 Kbps
Channel(s) : 2 channels
Sampling rate : 48.0 KHz
Bit depth : 24 bits
Delay relative to video : -618ms
Stream size : 173 MiB (17%)

Menu

General
Complete name : D:\_000\Sky - Sky 3 (1981)[2015] DVD\VIDEO_TS\VTS_01_3.VOB
Format : MPEG-PS
File size : 1 024 MiB
Duration : 15mn 46s
Overall bit rate : 9 071 Kbps

Video
ID : 224 (0xE0)
Format : MPEG Video
Format version : Version 2
Format profile : Main@Main
Format settings, BVOP : Yes
Format settings, Matrix : Custom
Format settings, GOP : M=3, N=15
Duration : 15mn 46s
Bit rate : 7 355 Kbps
Maximum bit rate : 6 600 Kbps
Width : 720 pixels
Height : 480 pixels
Display aspect ratio : 4:3
Frame rate : 29.970 fps
Standard : NTSC
Color space : YUV
Chroma subsampling : 4:2:0
Bit depth : 8 bits
Scan type : Progressive
Compression mode : Lossy
Bits/(Pixel*Frame) : 0.710
Time code of first frame : 00:31:33;18
Time code source : Group of pictures header
GOP, Open/Closed : Open
Stream size : 830 MiB (81%)

Audio
ID : 189 (0xBD)-160 (0xA0)
Format : PCM
Format settings, Endianness : Big
Format settings, Sign : Signed
Muxing mode : DVD-Video
Duration : 15mn 46s
Bit rate mode : Constant
Bit rate : 1 536 Kbps
Channel(s) : 2 channels
Sampling rate : 48.0 KHz
Bit depth : 24 bits
Delay relative to video : -480ms
Stream size : 173 MiB (17%)

Menu

General
Complete name : D:\_000\Sky - Sky 3 (1981)[2015] DVD\VIDEO_TS\VTS_01_4.VOB
Format : MPEG-PS
File size : 1 024 MiB
Duration : 15mn 46s
Overall bit rate : 9 072 Kbps

Video
ID : 224 (0xE0)
Format : MPEG Video
Format version : Version 2
Format profile : Main@Main
Format settings, BVOP : Yes
Format settings, Matrix : Custom
Format settings, GOP : M=3, N=15
Duration : 15mn 46s
Bit rate : 7 355 Kbps
Maximum bit rate : 6 600 Kbps
Width : 720 pixels
Height : 480 pixels
Display aspect ratio : 4:3
Frame rate : 29.970 fps
Standard : NTSC
Color space : YUV
Chroma subsampling : 4:2:0
Bit depth : 8 bits
Scan type : Progressive
Compression mode : Lossy
Bits/(Pixel*Frame) : 0.710
Time code of first frame : 00:47:20;26
Time code source : Group of pictures header
GOP, Open/Closed : Open
Stream size : 830 MiB (81%)

Audio
ID : 189 (0xBD)-160 (0xA0)
Format : PCM
Format settings, Endianness : Big
Format settings, Sign : Signed
Muxing mode : DVD-Video
Duration : 15mn 46s
Bit rate mode : Constant
Bit rate : 1 536 Kbps
Channel(s) : 2 channels
Sampling rate : 48.0 KHz
Bit depth : 24 bits
Delay relative to video : -863ms
Stream size : 173 MiB (17%)

Menu

General
Complete name : D:\_000\Sky - Sky 3 (1981)[2015] DVD\VIDEO_TS\VTS_01_5.VOB
Format : MPEG-PS
File size : 1 024 MiB
Duration : 15mn 46s
Overall bit rate : 9 071 Kbps

Video
ID : 224 (0xE0)
Format : MPEG Video
Format version : Version 2
Format profile : Main@Main
Format settings, BVOP : Yes
Format settings, Matrix : Custom
Format settings, GOP : M=3, N=15
Duration : 15mn 46s
Maximum bit rate : 6 600 Kbps
Width : 720 pixels
Height : 480 pixels
Display aspect ratio : 4:3
Frame rate : 29.970 fps
Standard : NTSC
Color space : YUV
Chroma subsampling : 4:2:0
Bit depth : 8 bits
Scan type : Progressive
Compression mode : Lossy
Time code of first frame : 01:03:07;07
Time code source : Group of pictures header
GOP, Open/Closed : Open

Audio #1
ID : 189 (0xBD)-160 (0xA0)
Format : PCM
Format settings, Endianness : Big
Format settings, Sign : Signed
Muxing mode : DVD-Video
Duration : 15mn 46s
Bit rate mode : Constant
Bit rate : 1 536 Kbps
Channel(s) : 2 channels
Sampling rate : 48.0 KHz
Bit depth : 24 bits
Delay relative to video : -515ms
Stream size : 173 MiB (17%)

Audio #2
ID : 221 (0xDD)
Format : MPEG Audio
Compression mode : Lossy

Sky - Sky 3 (1981) {2015, Bonus DVD} Re-Up

Sky - Sky 3 (1981) {2015, Bonus DVD} Re-Up

Sky - Sky 3 (1981) {2015, Bonus DVD} Re-Up

Sky - Sky 3 (1981) {2015, Bonus DVD} Re-Up

Sky - Sky 3 (1981) {2015, Bonus DVD} Re-Up

Sky - Sky 3 (1981) {2015, Bonus DVD} Re-Up

Sky - Sky 3 (1981) {2015, Bonus DVD} Re-Up

Sky - Sky 3 (1981) {2015, Bonus DVD} Re-Up

Sky - Sky 3 (1981) {2015, Bonus DVD} Re-Up

Sky - Sky 3 (1981) {2015, Bonus DVD} Re-Up

Sky - Sky 3 (1981) {2015, Bonus DVD} Re-Up


All thanks go to meloman67

>>> "Sky" in my Blog <<<

DOWNLOAD: