Tags
Language
Tags

Solti Conducts The Mozart Operas: Le nozze di Figaro (2012/1981)

Posted By: Vilboa
Solti Conducts The Mozart Operas: Le nozze di Figaro (2012/1981)

Solti Conducts The Mozart Operas: Le nozze di Figaro
Classical | DECCA 478 3703 | 2012 | TT: 168.06 | EAC (FLAC, cue, log) | Covers | 658 Mb

Unlike the late arrival of Mozart's Turkish opera, "Figaro" was much more of a constant in Solti's long career. Apart from being his debut opera, and a work he conducted at Covent Garden in a new staging in 1963-64, he also led editions in Chicago (1957), and with the Paris Opera in the highly visible Giorgio Strehler production that opened Intendant Rolf Liebermann's bold-new-start regime in March 1973; it was initially presented at the Palace of Versailles and in 1976 toured to the US. Frederica von Stade, the most admired Cherubino of the day, who had sung the role for Solti at Versailles, also appears on his subsequent recording. Made in 1981 with an exceptional cast, it won a Grammy award, perhaps unsurprisingly given that its other major assets include Kiri Te Kanawa's creamy-voiced Countess, Lucia Popp's sprightly Susanna, Thomas Allen's authoritative Count and Samuel Ramey's weighty Figaro. Smaller roles - Jane Berbié's Marcellina, Robert Tear's Basilio and Philip Langridge's Curzio among them - are also handled with tremendous care.

Cast:
Il Conte di Almaviva - Thomas Allen
La Contessa di Almaviva - Kiri Te Kanawa
Susanna - Lucia Popp
Figaro - Samuel Ramey
Cherubino - Frederica von Stade
Marcellina - Jane Berbié
Bartolo - Kurt Moll
Basilio - Robert Tear
Don Curzio - Philip Langridge
Barbarina - Yvonne Kenny
Antonio - Giorgio Tadeo
Due contadine - Lyda Russell, Anne Mason
London Opera Chorus
London Philharmonic Orchestra
Conductor - Sir Georg Solti
Recorded London, May-June 1981

Track List:
CD1
01. Sinfonia
Atto primo
02. Duettino: Cinque… deci… venti… trenta… (Figaro, Susanna)
03. Duettino: Se a caso Madama (Figaro, Susanna)
04. Recitativo: Bravo, signor padrone (Figaro)
05. Aria: La vendetta, oh la vendetta! (Bartolo)
06. Duettino: Via resti servita, madama brillante (Marcellina, Susanna)
07. Aria: Non so più cosa son, cosa faccio (Cherubino)
08. Terzetto: Cosa sento! (Conte, Susanna, Basilio)
09. Aria: Non più andrai (Figaro)
Atto secondo
10. Cavatina: Porgi, amor (Contessa)
11. Arietta: Voi che sapete che cosa è amor (Cherubino)
12. Aria: Venite, Inginocchiatevi (Susanna)
CD2
01. Recitativo: Che novità! (Conte, Contessa)
02. Terzetto: Susanna, or via, sortite (Conte, Contessa, Susanna)
03. Duettino: Aprite, presto (Susanna, Cherubino)
04. Finale: Esci, ormai, garzon malnato (Conte, Contessa, Susanna)
05. Signore, di fuori son già i suonatori (Figaro, Conte, Contessa, Susanna, Antonio)
06. Voi signor, che giusto siete (Marcellina, Basilio, Bartolo, Conte, Contessa, Susanna, Figaro)
Atto terzo
07. Recitativo: Che imbarazzo è mai questo! (Conte, Contessa, Susanna)
08. Duettino: Crudel! perché finora farmi languir cosi? (Conte, Susanna)
09. Recitativo ed Aria: Hai già vinta la causa! …Vedrò mentr'io sospiro (Conte)
10. Sestetto: Riconosci in questo amplesso (Marcellina, Figaro, Bartolo, Curzio, Conte, Susanna)
CD3
01. Recitativo ed Aria: E Susanna non vien! … Dove sono i biei momenti (Contessa)
02. Recitativo: Cosa mi narri! (Contessa, Susanna)
03. Finale: Ecco la marcia…Eh, già, solita usanza (Figaro, Susanna, Conte, Contessa)
Atto quarto
04. Cavatina: L'ho perduta… me meschina! (Barbarina)
05. Aria: Il capro e la capretta… (Marcellina)
06. Aria: In quegli anni in cui val poco (Basilio)
07. Recitativo ed Aria: Tutto è disposto … Aprite un po' quegli occhi (Figaro)
08. Recitativo ed Aria: Giunse alfin il momento … Deh, vieni, non tardar (Susanna)
09. Finale: Pian pianin le andrò più presso (Cherubino, Contessa, Conte, Susanna, Figaro)
10. Gente, gente, all'armi! (Tutti)


Exact Audio Copy V1.0 beta 3 from 29. August 2011

EAC extraction logfile from 17. September 2016, 16:42

Georg Solti, Allen, Te Kanawa, Ramey, Popp, von Stade / Mozart - Le nozze di Figaro CD1

Used drive : PIONEER BD-RW BDR-207M Adapter: 0 ID: 0

Read mode : Secure
Utilize accurate stream : Yes
Defeat audio cache : Yes
Make use of C2 pointers : No

Read offset correction : 667
Overread into Lead-In and Lead-Out : No
Fill up missing offset samples with silence : Yes
Delete leading and trailing silent blocks : No
Null samples used in CRC calculations : Yes
Used interface : Native Win32 interface for Win NT & 2000

Used output format : User Defined Encoder
Selected bitrate : 128 kBit/s
Quality : High
Add ID3 tag : No
Command line compressor : C:\Program Files\Exact Audio Copy\Flac\flac.exe
Additional command line options : -V -8 -T "Date=%year%" -T "Genre=%genre%" %source%


TOC of the extracted CD

Track | Start | Length | Start sector | End sector
––––––––––––––––––––––––––––-
1 | 0:00.32 | 3:51.15 | 32 | 17371
2 | 3:51.47 | 3:24.00 | 17372 | 32671
3 | 7:15.47 | 4:00.73 | 32672 | 50744
4 | 11:16.45 | 4:21.20 | 50745 | 70339
5 | 15:37.65 | 3:47.00 | 70340 | 87364
6 | 19:24.65 | 3:48.72 | 87365 | 104536
7 | 23:13.62 | 5:59.00 | 104537 | 131461
8 | 29:12.62 | 9:28.38 | 131462 | 174099
9 | 38:41.25 | 3:49.10 | 174100 | 191284
10 | 42:30.35 | 9:08.50 | 191285 | 232434
11 | 51:39.10 | 3:53.30 | 232435 | 249939
12 | 55:32.40 | 5:22.20 | 249940 | 274109


Range status and errors

Selected range

Filename C:\Program Files\Exact Audio Copy\Flac\Mozart - Le nozze di Figaro CD1.wav

Peak level 96.0 %
Extraction speed 4.3 X
Range quality 100.0 %
Test CRC CC69977F
Copy CRC CC69977F
Copy OK

No errors occurred

End of status report

==== Log checksum B39C5E8272E1B47EB317F2EF6A0A9EB852B2606055963E78B1E9628C3416752A ====


Exact Audio Copy V1.0 beta 3 from 29. August 2011

EAC extraction logfile from 17. September 2016, 17:03

Georg Solti, Allen, Te Kanawa, Ramey, Popp, von Stade / Mozart - Le nozze di Figaro CD2

Used drive : PIONEER BD-RW BDR-207M Adapter: 0 ID: 0

Read mode : Secure
Utilize accurate stream : Yes
Defeat audio cache : Yes
Make use of C2 pointers : No

Read offset correction : 667
Overread into Lead-In and Lead-Out : No
Fill up missing offset samples with silence : Yes
Delete leading and trailing silent blocks : No
Null samples used in CRC calculations : Yes
Used interface : Native Win32 interface for Win NT & 2000

Used output format : User Defined Encoder
Selected bitrate : 128 kBit/s
Quality : High
Add ID3 tag : No
Command line compressor : C:\Program Files\Exact Audio Copy\Flac\flac.exe
Additional command line options : -V -8 -T "Date=%year%" -T "Genre=%genre%" %source%


TOC of the extracted CD

Track | Start | Length | Start sector | End sector
––––––––––––––––––––––––––––-
1 | 0:00.32 | 1:17.25 | 32 | 5831
2 | 1:17.57 | 3:49.28 | 5832 | 23034
3 | 5:07.10 | 2:40.25 | 23035 | 35059
4 | 7:47.35 | 7:40.30 | 35060 | 69589
5 | 15:27.65 | 8:42.50 | 69590 | 108789
6 | 24:10.40 | 4:01.40 | 108790 | 126904
7 | 28:12.05 | 2:31.15 | 126905 | 138244
8 | 30:43.20 | 3:28.67 | 138245 | 153911
9 | 34:12.12 | 6:47.70 | 153912 | 184506
10 | 41:00.07 | 6:33.00 | 184507 | 213981


Range status and errors

Selected range

Filename C:\Program Files\Exact Audio Copy\Flac\Mozart - Le nozze di Figaro CD2.wav

Peak level 95.2 %
Extraction speed 6.7 X
Range quality 100.0 %
Test CRC 8A70DFBE
Copy CRC 8A70DFBE
Copy OK

No errors occurred

End of status report

==== Log checksum 3F0816C578AAFCB6B5E8341134096E265E1D3B0B24D67A4604F009A1BF204054 ====


Exact Audio Copy V1.0 beta 3 from 29. August 2011

EAC extraction logfile from 17. September 2016, 17:31

Georg Solti, Allen, Te Kanawa, Ramey, Popp, von Stade / Mozart - Le nozze di Figaro CD3

Used drive : PIONEER BD-RW BDR-207M Adapter: 0 ID: 0

Read mode : Secure
Utilize accurate stream : Yes
Defeat audio cache : Yes
Make use of C2 pointers : No

Read offset correction : 667
Overread into Lead-In and Lead-Out : No
Fill up missing offset samples with silence : Yes
Delete leading and trailing silent blocks : No
Null samples used in CRC calculations : Yes
Used interface : Native Win32 interface for Win NT & 2000

Used output format : User Defined Encoder
Selected bitrate : 128 kBit/s
Quality : High
Add ID3 tag : No
Command line compressor : C:\Program Files\Exact Audio Copy\Flac\flac.exe
Additional command line options : -V -8 -T "Date=%year%" -T "Genre=%genre%" %source%


TOC of the extracted CD

Track | Start | Length | Start sector | End sector
––––––––––––––––––––––––––––-
1 | 0:00.33 | 7:31.67 | 33 | 33924
2 | 7:32.25 | 7:17.00 | 33925 | 66699
3 | 14:49.25 | 6:18.28 | 66700 | 95077
4 | 21:07.53 | 4:31.57 | 95078 | 115459
5 | 25:39.35 | 5:22.30 | 115460 | 139639
6 | 31:01.65 | 3:54.23 | 139640 | 157212
7 | 34:56.13 | 4:45.62 | 157213 | 178649
8 | 39:42.00 | 5:14.03 | 178650 | 202202
9 | 44:56.03 | 10:32.60 | 202203 | 249662
10 | 55:28.63 | 5:08.25 | 249663 | 272787


Range status and errors

Selected range

Filename C:\Program Files\Exact Audio Copy\Flac\Mozart - Le nozze di Figaro CD3.wav

Peak level 96.0 %
Extraction speed 7.1 X
Range quality 100.0 %
Test CRC 666860EE
Copy CRC 666860EE
Copy OK

No errors occurred

End of status report

==== Log checksum 2FF8472FAAACF63EC98033B8FC783DAAB5E37AEBF2F4677987B758DE2B811327 ====