Tags
Language
Tags

Sophie Yates - La Sophie: Popular Harpsichord Music of the 18th Century (1996)

Posted By: ArlegZ
Sophie Yates - La Sophie: Popular Harpsichord Music of the 18th Century (1996)

Sophie Yates - La Sophie: Popular Harpsichord Music of the 18th Century (1996)
EAC | FLAC | Image (Cue & Log) ~ 444 Mb | Total time: 71:43 | Scans included
Classical | Label: Chandos | # CHAN 0598 | Recorded: 1995

This collection of 18th century harpsichord music brings together works by Johann Sebastian Bach, Jacques Duphly, Francois Couperin, Jean-Philippe Rameau, George Frederic Handel, Louis-Claude Daquin, and Guiseppe Domenico Scarlatti. The pieces go together nicely, not least because of the way in which Sophie Yates plays them.

Performer:
Sophie Yates, harpsichord

Track List:
Johann Sebastian Bach - Italian Concerto BWV 971
01. I. [Allegro]
02. II. Andante
03. III. Presto
04. Jacques Duphly - Quatrième livre de pièces de clavecin. Rondeau: La Pothoüin
05. François Couperin - Deuxième livre de clavecin, sixième ordre: Les baricades mistérieuses
06. Jean-Philippe Rameau - Pièces de clavecin avec une méthode sur la mechanique des doigts. Rondeau: Les cyclopes
George Frideric Handel - Suite in E major `Harmonious Blacksmith`, HWV 430
07. I. Prélude
08. II. Allemande
09. III. Courante
10. IV. Air and Variations
11. François Couperin - Premier livre de clavecin, quatrième ordre: Le réveil-matin
12. Louis-Claude Daquin - Premier livre de pièces de clavecin, troisième suite. Rondeau: Le coucou
13. François Couperin - Quatrième livre de pièces de clavecin vingt-sixième ordre: La Sophie
14. Domenico Scarlatti - Sonata KK 513 in C major: Pastorale; moderato
15. Domenico Scarlatti - Sonata KK 24 in A major: Presto
Jean-Philippe Rameau - Nouvelles suites de pièces de clavecin, for harpsichord
16. La poule
17. Gavotte and Variations


Exact Audio Copy V1.3 from 2. September 2016

EAC extraction logfile from 28. May 2019, 15:33

Sophie Yates / La Sophie

Used drive : HL-DT-STDVDRAM GP65NW60 Adapter: 1 ID: 0

Read mode : Secure
Utilize accurate stream : Yes
Defeat audio cache : Yes
Make use of C2 pointers : No

Read offset correction : 6
Overread into Lead-In and Lead-Out : No
Fill up missing offset samples with silence : Yes
Delete leading and trailing silent blocks : No
Null samples used in CRC calculations : Yes
Used interface : Native Win32 interface for Win NT & 2000

Used output format : User Defined Encoder
Selected bitrate : 1024 kBit/s
Quality : High
Add ID3 tag : No
Command line compressor : C:\Program Files (x86)\Exact Audio Copy\FLAC\FLAC.EXE
Additional command line options : -6 -V -T "ARTIST=%artist%" -T "TITLE=%title%" -T "ALBUM=%albumtitle%" -T "DATE=%year%" -T "TRACKNUMBER=%tracknr%" -T "GENRE=%genre%" -T "COMMENT=%comment%" -T "BAND=%albuminterpret%" -T "ALBUMARTIST=%albuminterpret%" -T "COMPOSER=%composer%" %haslyrics%–tag-from-file=LYRICS="%lyricsfile%"%haslyrics% -T "DISCNUMBER=%cdnumber%" -T "TOTALDISCS=%totalcds%" -T "TOTALTRACKS=%numtracks%" %hascover%–picture="%coverfile%"%hascover% %source% -o %dest%


TOC of the extracted CD

Track | Start | Length | Start sector | End sector
––––––––––––––––––––––––––––-
1 | 0:00.00 | 4:08.60 | 0 | 18659
2 | 4:08.60 | 5:21.62 | 18660 | 42796
3 | 9:30.47 | 4:20.30 | 42797 | 62326
4 | 13:51.02 | 5:27.53 | 62327 | 86904
5 | 19:18.55 | 2:25.65 | 86905 | 97844
6 | 21:44.45 | 3:52.55 | 97845 | 115299
7 | 25:37.25 | 2:23.40 | 115300 | 126064
8 | 28:00.65 | 5:32.57 | 126065 | 151021
9 | 33:33.47 | 2:02.60 | 151022 | 160231
10 | 35:36.32 | 4:30.55 | 160232 | 180536
11 | 40:07.12 | 3:57.70 | 180537 | 198381
12 | 44:05.07 | 2:22.40 | 198382 | 209071
13 | 46:27.47 | 3:12.03 | 209072 | 223474
14 | 49:39.50 | 5:23.02 | 223475 | 247701
15 | 55:02.52 | 5:28.48 | 247702 | 272349
16 | 60:31.25 | 3:43.02 | 272350 | 289076
17 | 64:14.27 | 7:31.65 | 289077 | 322966


Range status and errors

Selected range

Filename C:\Users\Grant\Desktop\Sophie Yates - La Sophie.wav

Peak level 44.4 %
Extraction speed 2.3 X
Range quality 100.0 %
Test CRC F0AE1DD6
Copy CRC F0AE1DD6
Copy OK

No errors occurred


AccurateRip summary

Track 1 accurately ripped (confidence 4) [F1FC1D74] (AR v2)
Track 2 accurately ripped (confidence 4) [B736DE52] (AR v2)
Track 3 accurately ripped (confidence 4) [DB4D9C7D] (AR v2)
Track 4 accurately ripped (confidence 4) [C1139AE2] (AR v2)
Track 5 accurately ripped (confidence 4) [DBB84972] (AR v2)
Track 6 accurately ripped (confidence 4) [80DC5855] (AR v2)
Track 7 accurately ripped (confidence 4) [0A3A0785] (AR v2)
Track 8 accurately ripped (confidence 4) [6E713A17] (AR v2)
Track 9 accurately ripped (confidence 4) [E616EC2B] (AR v2)
Track 10 accurately ripped (confidence 4) [94AB2583] (AR v2)
Track 11 accurately ripped (confidence 4) [4C2CE3DB] (AR v2)
Track 12 accurately ripped (confidence 4) [098F87F8] (AR v2)
Track 13 accurately ripped (confidence 3) [2BB19CC4] (AR v2)
Track 14 accurately ripped (confidence 3) [341DFFA2] (AR v2)
Track 15 accurately ripped (confidence 4) [EBDBBE45] (AR v2)
Track 16 accurately ripped (confidence 4) [7F272F49] (AR v2)
Track 17 accurately ripped (confidence 4) [8740B1C6] (AR v2)

All tracks accurately ripped

End of status report

–– CUETools DB Plugin V2.1.6

[CTDB TOCID: X1pGn.zJD92hdry8oblyaLNd3.w-] found
Submit result: X1pGn.zJD92hdry8oblyaLNd3.w- has been confirmed
Track | CTDB Status
1 | (7/7) Accurately ripped
2 | (6/7) Accurately ripped
3 | (6/7) Accurately ripped
4 | (6/7) Accurately ripped
5 | (6/7) Accurately ripped
6 | (6/7) Accurately ripped
7 | (6/7) Accurately ripped
8 | (6/7) Accurately ripped
9 | (6/7) Accurately ripped
10 | (6/7) Accurately ripped
11 | (6/7) Accurately ripped
12 | (6/7) Accurately ripped
13 | (6/7) Accurately ripped
14 | (6/7) Accurately ripped
15 | (6/7) Accurately ripped
16 | (6/7) Accurately ripped
17 | (6/7) Accurately ripped


==== Log checksum 517AD7C8008F3B6903A3CBB375656B2206B26A80827A5866D8D5844E5434D7E3 ====

Sophie Yates - La Sophie: Popular Harpsichord Music of the 18th Century (1996)

Thanks to the original releaser