Tags
Language
Tags

Special EFX - Confidential (1989) {GRP}

Posted By: tiburon
Special EFX - Confidential (1989) {GRP}

Special EFX - Confidential (1989) {GRP}
EAC 0.99pb4 | FLAC tracks level 8 | Cue+Log+M3U | Full Scans 300dpi | 279MB + 5% Recovery
MP3 CBR 320 Kbps | 112MB + 5% Recovery
Genre: Fusion, Smooth Jazz
Special EFX - Confidential (1989) {GRP}

Combining Latin and African rhythms with the light textures of MOR jazz, Special EFX emerged as one of the most prominent world fusion groups of their era. Formed in New York in 1982, Special EFX was essentially a duo comprised of guitarist Chieli Minucci and Hungarian-born drummer/percussionist George Jinda; debuting in 1985 with the album Modern Manners, they often recruited other musicians to help flesh out their state-of-the-art sound, among them Dave Grusin, Omar Hakim, and McCoy Tyner.
Track List
01. Sabariah (Jinda)
02. The Effect (Minucci)
03. Confidential (Minucci)
04. My Place In The Sun (Minucci)
05. Big Night Out (Szakcsi/Jinda/Minucci)
06. Let’s Go Downtown (Minucci/Bailey)
07. Diamond In The Sand (Szakcsi/Jinda)
08. Nature Boy (Minucci/Jinda)
09. Secret Storm (Pts. 1 & 2) (Minucci)

musicians
Chieli Minucci - electric and acoustic guitars, guitar synth, keyboards
George Jinda - Chinese double bells, sound discs, whistles, caxixis, Englehart bells, claves, triangle, shaker, finger cymbals, sound discs, shekere, tuned temple blocks, cowbells, ganza, woodblocks, bongos, drums (brushes…), Udu drums, sleighbells, Brazilian tambourin, timbales, china cymbals, crash cymbals, energy chime, chime tree, triangle, roto chime
Omar Hakim - drums
Rodney Holmes - drums
Vince Loving - bass
Victor Bailey - bass
Michael Bearden - keyboards
Kenny Werner - keyboards
Szakcsi - acoustic grand piano
Bemshi - vocals
Sam Butler - vocals

Produced by Chieli Minucci and George Jinda


Exact Audio Copy V0.99 prebeta 4 from 23. January 2008

EAC extraction logfile from 23. November 2008, 12:45

Special EFX / Confidential

Used drive : PLEXTOR CD-R PREMIUM2 Adapter: 1 ID: 1

Read mode : Secure
Utilize accurate stream : Yes
Defeat audio cache : Yes
Make use of C2 pointers : No

Read offset correction : 30
Overread into Lead-In and Lead-Out : No
Fill up missing offset samples with silence : Yes
Delete leading and trailing silent blocks : No
Null samples used in CRC calculations : Yes
Used interface : Installed external ASPI interface
Gap handling : Appended to previous track

Used output format : User Defined Encoder
Selected bitrate : 32 kBit/s
Quality : High
Add ID3 tag : No
Command line compressor : C:\Programmi\FLAC\flac.exe
Additional command line options : -8 -V -T "ARTIST=%a" -T "TITLE=%t" -T "ALBUM=%g" -T "DATE=%y" -T "TRACKNUMBER=%n" -T "GENRE=%m" -T "COMMENT=EAC FLAC -8" %s


TOC of the extracted CD

Track | Start | Length | Start sector | End sector
––––––––––––––––––––––––––––-
1 | 0:00.00 | 4:02.15 | 0 | 18164
2 | 4:02.15 | 6:01.22 | 18165 | 45261
3 | 10:03.37 | 4:50.63 | 45262 | 67074
4 | 14:54.25 | 4:14.27 | 67075 | 86151
5 | 19:08.52 | 4:22.53 | 86152 | 105854
6 | 23:31.30 | 4:52.45 | 105855 | 127799
7 | 28:24.00 | 4:33.40 | 127800 | 148314
8 | 32:57.40 | 6:31.25 | 148315 | 177664
9 | 39:28.65 | 5:23.72 | 177665 | 201961


Track 1

Filename C:\My Rip\01 - Sabariah.wav

Pre-gap length 0:00:02.00

Peak level 95.9 %
Track quality 100.0 %
Test CRC 27E8597F
Copy CRC 27E8597F
Accurately ripped (confidence 2) [961FDCFF]
Copy OK

Track 2

Filename C:\My Rip\02 - The Effect.wav

Pre-gap length 0:00:00.20

Peak level 100.0 %
Track quality 99.9 %
Test CRC DCFFCBA5
Copy CRC DCFFCBA5
Accurately ripped (confidence 2) [74C90690]
Copy OK

Track 3

Filename C:\My Rip\03 - Confidential.wav

Pre-gap length 0:00:00.09

Peak level 76.1 %
Track quality 100.0 %
Test CRC DFBA5556
Copy CRC DFBA5556
Accurately ripped (confidence 2) [9E8B9207]
Copy OK

Track 4

Filename C:\My Rip\04 - My Place In The Sun.wav

Pre-gap length 0:00:00.17

Peak level 95.3 %
Track quality 99.9 %
Test CRC 692CD73F
Copy CRC 692CD73F
Accurately ripped (confidence 2) [2A0C66B8]
Copy OK

Track 5

Filename C:\My Rip\05 - Big Night Out.wav

Pre-gap length 0:00:01.53

Peak level 92.3 %
Track quality 100.0 %
Test CRC 28E1713E
Copy CRC 28E1713E
Accurately ripped (confidence 2) [C72905AF]
Copy OK

Track 6

Filename C:\My Rip\06 - Let's Go Downtown.wav

Pre-gap length 0:00:00.40

Peak level 100.0 %
Track quality 100.0 %
Test CRC C1E78C26
Copy CRC C1E78C26
Accurately ripped (confidence 2) [FE881D24]
Copy OK

Track 7

Filename C:\My Rip\07 - Diamond In The Sand.wav

Pre-gap length 0:00:00.66

Peak level 99.3 %
Track quality 100.0 %
Test CRC 1AD642AC
Copy CRC 1AD642AC
Accurately ripped (confidence 2) [8CCF86CE]
Copy OK

Track 8

Filename C:\My Rip\08 - Nature Boy.wav

Pre-gap length 0:00:01.20

Peak level 98.8 %
Track quality 100.0 %
Test CRC 13D317C0
Copy CRC 13D317C0
Accurately ripped (confidence 2) [5C8C8617]
Copy OK

Track 9

Filename C:\My Rip\09 - Secret Storm (Part I & Part II).wav

Peak level 61.4 %
Track quality 100.0 %
Test CRC A4FF9E85
Copy CRC A4FF9E85
Accurately ripped (confidence 2) [03496C76]
Copy OK


All tracks accurately ripped

No errors occurred

End of status report


––––––––––––––––––––––––––––––––––––––––
Analyzed: Special EFX / Confidential
––––––––––––––––––––––––––––––––––––––––

DR Peak RMS Duration Track
––––––––––––––––––––––––––––––––––––––––
DR15 -0.36 dB -18.45 dB 4:02 01-Sabariah
DR15 0.00 dB -17.19 dB 6:01 02-The Effect
DR15 -2.37 dB -20.36 dB 4:51 03-Confidential
DR14 -0.42 dB -18.00 dB 4:14 04-My Place In The Sun
DR13 -0.70 dB -16.72 dB 4:23 05-Big Night Out
DR15 0.00 dB -17.56 dB 4:53 06-Let's Go Downtown
DR15 -0.06 dB -18.06 dB 4:34 07-Diamond In The Sand
DR15 -0.10 dB -19.31 dB 6:31 08-Nature Boy
DR11 -4.22 dB -19.41 dB 5:24 09-Secret Storm (Part I & Part II)
––––––––––––––––––––––––––––––––––––––––

Number of tracks: 9
Official DR value: DR14

Samplerate: 44100 Hz
Channels: 2
Bits per sample: 16
Bitrate: 735 kbps
Codec: FLAC
================================================================================

Special EFX - Confidential (1989) {GRP}
Special EFX - Confidential (1989) {GRP}
Special EFX - Confidential (1989) {GRP}


Thanks to the original ripper