Tags
Language
Tags

Special EFX - Double Feature (1988) {GRP}

Posted By: tiburon
Special EFX - Double Feature (1988) {GRP}

Special EFX - Double Feature (1988) {GRP}
EAC 0.95b3 | FLAC tracks level 8 | Cue+Log+M3U | Full Scans 600dpi | 337MB + 5% Recovery
MP3 CBR 320 Kbps | 129MB + 5% Recovery
Genre: Fusion, Smooth Jazz

Released in 1988, Double Feature is the fourth and best album of Special EFX.
Track List
01. The Lady And The Sea 5:14
02. Jamaica, Jamaica 4:04
03. Passages 3:10
04. Golden Days 6:38
05. Sunflower 4:13
06. Mirrors 5:43
07. Just A Little Time 4:19
08. Search For A Rainbow 5:43
09. Thy Kingdom Come 6:20
10. Northern Light 5:00
11. Oasis 5:37

musicians
Chieli Minucci - electric and acoustic guitars
George Jinda - shakers, African Shakers, cymbals, bongos, Udu drum, tambourines, timbalitos, shakere, crotales, bells
Kenny Werner - synthesizers
Michael Bearden - synthesizers, synth strings and flutes
Szakcsi - acoustic piano
Robbie Kondor - synthesizer
Mark Egan - bass
Omar Hakim - drums
Dave Weckl - drums
Bemshi - vocals

Produced by Chieli Minucci


EAC extraction logfile from 14. May 2006, 7:44 for CD
Special EFX / Double Feature

Used drive : PLEXTOR DVDR PX-716A Adapter: 1 ID: 0
Read mode : Secure with NO C2, accurate stream, disable cache
Read offset correction : 30
Overread into Lead-In and Lead-Out : Yes

Used output format : C:\Programmi\Exact Audio Copy\flac-1.1.2-win\bin\flac.exe (User Defined Encoder)
32 kBit/s
Additional command line options : -8 -V %s

Other options :
Fill up missing offset samples with silence : Yes
Delete leading and trailing silent blocks : No
Installed external ASPI interface


Track 1
Filename F:\[MyRip]\Special EFX - Double Feature (1988)\01 - The Lady And The Sea.wav

Pre-gap length 0:00:02.33

Peak level 90.6 %
Track quality 100.0 %
Test CRC 321A3A86
Copy CRC 321A3A86
Copy OK

Track 2
Filename F:\[MyRip]\Special EFX - Double Feature (1988)\02 - Jamaica, Jamaica.wav

Peak level 87.5 %
Track quality 100.0 %
Test CRC 0E486DC5
Copy CRC 0E486DC5
Copy OK

Track 3
Filename F:\[MyRip]\Special EFX - Double Feature (1988)\03 - Passages.wav

Peak level 49.3 %
Track quality 99.9 %
Test CRC 44A85D4D
Copy CRC 44A85D4D
Copy OK

Track 4
Filename F:\[MyRip]\Special EFX - Double Feature (1988)\04 - Golden Days.wav

Peak level 76.3 %
Track quality 100.0 %
Test CRC E431D21C
Copy CRC E431D21C
Copy OK

Track 5
Filename F:\[MyRip]\Special EFX - Double Feature (1988)\05 - Sunflower.wav

Peak level 91.1 %
Track quality 100.0 %
Test CRC B3004F92
Copy CRC B3004F92
Copy OK

Track 6
Filename F:\[MyRip]\Special EFX - Double Feature (1988)\06 - Mirrors.wav

Peak level 55.2 %
Track quality 100.0 %
Test CRC 095A027A
Copy CRC 095A027A
Copy OK

Track 7
Filename F:\[MyRip]\Special EFX - Double Feature (1988)\07 - Just A Little Time.wav

Peak level 86.0 %
Track quality 100.0 %
Test CRC BE6DB379
Copy CRC BE6DB379
Copy OK

Track 8
Filename F:\[MyRip]\Special EFX - Double Feature (1988)\08 - Search For A Rainbow.wav

Peak level 62.5 %
Track quality 100.0 %
Test CRC FD6348A8
Copy CRC FD6348A8
Copy OK

Track 9
Filename F:\[MyRip]\Special EFX - Double Feature (1988)\09 - Thy Kingdom Come.wav

Peak level 84.4 %
Track quality 100.0 %
Test CRC 42ECB434
Copy CRC 42ECB434
Copy OK

Track 10
Filename F:\[MyRip]\Special EFX - Double Feature (1988)\10 - Northern Light.wav

Peak level 82.0 %
Track quality 100.0 %
Test CRC 6D3A0AD9
Copy CRC 6D3A0AD9
Copy OK

Track 11
Filename F:\[MyRip]\Special EFX - Double Feature (1988)\11 - Oasis.wav

Peak level 88.1 %
Track quality 100.0 %
Test CRC 262962BA
Copy CRC 262962BA
Copy OK

No errors occured


End of status report


––––––––––––––––––––––––––––––––––––––––
Analyzed: Special EFX / Double Feature
––––––––––––––––––––––––––––––––––––––––

DR Peak RMS Duration Track
––––––––––––––––––––––––––––––––––––––––
DR17 -0.86 dB -21.06 dB 5:14 ?-01 - The Lady And The Sea
DR15 -1.15 dB -20.36 dB 4:02 ?-02 - Jamaica, Jamaica
DR12 -6.13 dB -22.01 dB 3:11 ?-03 - Passages
DR14 -2.35 dB -20.32 dB 6:11 ?-04 - Golden Days
DR14 -0.80 dB -18.73 dB 4:58 ?-05 - Sunflower
DR12 -5.15 dB -20.40 dB 5:41 ?-06 - Mirrors
DR17 -1.31 dB -21.42 dB 4:20 ?-07 - Just A Little Time
DR15 -4.08 dB -23.82 dB 5:43 ?-08 - Search For A Rainbow
DR16 -1.47 dB -20.50 dB 6:20 ?-09 - Thy Kingdom Come
DR15 -1.71 dB -20.19 dB 5:28 ?-10 - Northern Light
DR18 -1.09 dB -21.34 dB 5:20 ?-11 - Oasis
––––––––––––––––––––––––––––––––––––––––

Number of tracks: 11
Official DR value: DR15

Samplerate: 44100 Hz
Channels: 2
Bits per sample: 16
Bitrate: 766 kbps
Codec: FLAC
================================================================================


Special EFX - Double Feature (1988) {GRP}
Special EFX - Double Feature (1988) {GRP}
Special EFX - Double Feature (1988) {GRP}


Thanks to the original ripper