Subcategories
Tags
Language
Tags

Spooky Tooth - The Island Years: An Anthology 1967-1974 (2015) [9CD Box Set]

Posted By: v3122
Spooky Tooth - The Island Years: An Anthology 1967-1974 (2015) [9CD Box Set]

Spooky Tooth - The Island Years: An Anthology 1967-1974 (2015)
EAC | Flac(Image) + Cue + Log & MP3 CBR 320Kbps
Universal-Island Records, 470 531-1 | ~ 2710 or 1172 Mb | Scans(png) -> 1160 Mb
Rock / Blues Rock / Progressive Rock / Psychedelic Rock

Spooky Tooth - The Island Years: An Anthology 1967-1974 (2015) [9CD Box Set]

The Island Years is a new comprehensive anthology featuring the work British rock band Spooky Tooth who released seven studio albums between 1968 and 1974.

This new box set features all of those long players and even steps back a year to 1967 to make room for Supernatural Fairy Tales, an album recorded by an earlier incarnation of the band called Art.

The Island Years is available as a nine-CD box set or an eight-LP collection. All of the albums feature rare bonus material and the anthology ends with a full concert from April 1972, recorded in Germany. In total, there is over 30 previously unreleased recordings.

The vinyl box set contains the eight Spooky Tooth / Art albums in replica packaging. None of the bonus tracks are on the records, but you do get a download card which gives you access to all the additional material on the CD set including the live concert.

The vinyl set includes an Art promotional poster while the CD box comes with a 48 page book.

~ Superdeluxeedition.com
Spooky Tooth - The Island Years: An Anthology 1967-1974 (2015) [9CD Box Set]


Spooky Tooth - The Island Years: An Anthology 1967-1974 (2015):

Spooky Tooth - The Island Years: An Anthology 1967-1974 (2015) [9CD Box Set]

CD01: Art - Supernatural Fairy Tales (1967)
EAC | Flac(Image) + Cue + Log & MP3 CBR 320Kbps
Universal-Island Records, 470 531-0 | ~ 255 or 130 Mb | Scans(png) -> 106 Mb
Rock / Blues Rock / Progressive Rock / Psychedelic Rock

Patchy but occasionally worthwhile British psychedelia, particularly when it's on the brooding side of that sub-genre. The heavy guitars and organ put this on the path to progressive rock, but the songs are rather more on the straightforward and popish side than those that Spooky Tooth would play when Art evolved into that group. "I Think I'm Going Weird" points to the morbid streak that would become sharper in Spooky Tooth; "African Thing," with its long African-styled drum solo, is the sort of strange, at least by the standards of 1967, item that groups would throw in to show they weren't limiting themselves to traditional rock forms anymore; "Come On Up" is almost a soul-rocker throwback to the V.I.P.s days; and the title track, with its mellotrons, is as close as Art got to the trippy baroque/whimsical mood that blew through so much British psychedelia in 1967 and 1968.

by Richie Unterberger, AMG

Tracklist:

01 I Think I’m Going Weird
02 What’s That Sound (For What It’s Worth)
03 African Thing
04 Room With A View
05 Flying Anchors
06 Supernatural Fairy Tales
07 Love Is Real
08 Come On Up
09 Brothers, Dads And Mothers
10 Talkin’ To Myself
11 Alive, Not Dead
12 Rome Take Away Three

Bonus Tracks - Stereo Mixes:
13 Love Is Real
14 I Think I’m Going Weird
15 Room With A View
16 Flying Anchors
17 Supernatural Fairy Tales
18 Talkin’ To Myself

Exact Audio Copy V1.0 beta 6 from 9. April 2015

EAC extraction logfile from 3. May 2015, 19:28

Spooky Tooth / Supernatural Fairy Tales

Used drive : PLEXTOR BD-R PX-B950SA Adapter: 1 ID: 1

Read mode : Secure
Utilize accurate stream : Yes
Defeat audio cache : Yes
Make use of C2 pointers : No

Read offset correction : 6
Overread into Lead-In and Lead-Out : No
Fill up missing offset samples with silence : Yes
Delete leading and trailing silent blocks : No
Null samples used in CRC calculations : Yes
Used interface : Native Win32 interface for Win NT & 2000

Used output format : Internal WAV Routines
Sample format : 44.100 Hz; 16 Bit; Stereo


TOC of the extracted CD

Track | Start | Length | Start sector | End sector
––––––––––––––––––––––––––––-
1 | 0:00.00 | 3:22.15 | 0 | 15164
2 | 3:22.15 | 2:49.43 | 15165 | 27882
3 | 6:11.58 | 4:07.09 | 27883 | 46416
4 | 10:18.67 | 3:40.52 | 46417 | 62968
5 | 13:59.44 | 2:42.44 | 62969 | 75162
6 | 16:42.13 | 3:36.54 | 75163 | 91416
7 | 20:18.67 | 3:21.05 | 91417 | 106496
8 | 23:39.72 | 3:04.63 | 106497 | 120359
9 | 26:44.60 | 3:30.21 | 120360 | 136130
10 | 30:15.06 | 1:41.57 | 136131 | 143762
11 | 31:56.63 | 2:14.20 | 143763 | 153832
12 | 34:11.08 | 3:04.20 | 153833 | 167652
13 | 37:15.28 | 2:41.12 | 167653 | 179739
14 | 39:56.40 | 3:18.04 | 179740 | 194593
15 | 43:14.44 | 3:40.31 | 194594 | 211124
16 | 46:55.00 | 2:49.43 | 211125 | 223842
17 | 49:44.43 | 3:37.11 | 223843 | 240128
18 | 53:21.54 | 1:40.24 | 240129 | 247652


Range status and errors

Selected range

Filename C:\Users\Meijin\Desktop\ALLexxess\Spooky Tooth\2015 Island Years 1967-1974 (9CD Box Set Universal Island)\1967 Supernatural Fairy Tales\Spooky Tooth - Supernatural Fairy Tales.wav

Peak level 98.8 %
Extraction speed 7.1 X
Range quality 99.9 %
Test CRC 2BCD4B5A
Copy CRC 2BCD4B5A
Copy OK

No errors occurred


AccurateRip summary

Track 1 not present in database
Track 2 not present in database
Track 3 not present in database
Track 4 not present in database
Track 5 not present in database
Track 6 not present in database
Track 7 not present in database
Track 8 not present in database
Track 9 not present in database
Track 10 not present in database
Track 11 not present in database
Track 12 not present in database
Track 13 not present in database
Track 14 not present in database
Track 15 not present in database
Track 16 not present in database
Track 17 not present in database
Track 18 not present in database

None of the tracks are present in the AccurateRip database

End of status report

–– CUETools DB Plugin V2.1.6

[CTDB TOCID: sTvwLdHnzApX_zm_M1HY17.0WKo-] disk not present in database
Submit result: sTvwLdHnzApX_zm_M1HY17.0WKo- has been uploaded


==== Log checksum 14A591B7A7F5C1A221268601015BEBFDFD30104676BEA886FAF8CDF8808D21D1 ====

foobar2000 1.2.9 / Dynamic Range Meter 1.1.1
log date: 2015-05-08 15:43:10

––––––––––––––––––––––––––––––––––––––––
Analyzed: Spooky Tooth / Supernatural Fairy Tales
––––––––––––––––––––––––––––––––––––––––

DR Peak RMS Duration Track
––––––––––––––––––––––––––––––––––––––––
DR8 -0.10 dB -10.00 dB 3:22 01-I Think I'm Going Weird
DR9 -0.10 dB -10.21 dB 2:50 02-What’s That Sound (For What It’s Worth)
DR9 -0.10 dB -10.27 dB 4:07 03-African Thing
DR9 -0.10 dB -10.97 dB 3:41 04-Room With A View
DR10 -0.11 dB -11.19 dB 2:43 05-Flying Anchors
DR8 -0.10 dB -10.38 dB 3:37 06-Supernatural Fairy Tales
DR10 -0.10 dB -12.56 dB 3:21 07-Love Is Real
DR9 -0.10 dB -11.23 dB 3:05 08-Come On Up
DR9 -0.10 dB -10.50 dB 3:30 09-Brothers, Dads And Mothers
DR10 -0.10 dB -10.98 dB 1:42 10-Talkin' To Myself
DR9 -0.10 dB -10.88 dB 2:14 11-Alive, Not Dead
DR10 -0.10 dB -10.94 dB 3:04 12-Rome Take Away Three
DR11 -0.11 dB -12.81 dB 2:41 13-Love Is Real (Stereo Mix) / Bonus Track
DR9 -0.10 dB -10.86 dB 3:18 14-I Think I'm Going Weird (Stereo Mix) / Bonus Track
DR10 -0.10 dB -11.76 dB 3:40 15-Room With A View (Stereo Mix) / Bonus Track
DR9 -3.30 dB -14.28 dB 2:50 16-Flying Anchors (Stereo Mix) / Bonus Track
DR11 -0.10 dB -12.61 dB 3:37 17-Supernatural Fairy Tales (Stereo Mix) / Bonus Track
DR10 -0.10 dB -11.43 dB 1:40 18-Talkin' To Myself (Stereo Mix) / Bonus Track
––––––––––––––––––––––––––––––––––––––––

Number of tracks: 18
Official DR value: DR9

Samplerate: 44100 Hz
Channels: 2
Bits per sample: 16
Bitrate: 599 kbps
Codec: FLAC

[CUETools log; Date: 08.05.2015 15:43:15; Version: 2.1.4]
[CTDB TOCID: sTvwLdHnzApX_zm_M1HY17.0WKo-] found.
Track | CTDB Status
1 | (1/1) Accurately ripped
2 | (1/1) Accurately ripped
3 | (1/1) Accurately ripped
4 | (1/1) Accurately ripped
5 | (1/1) Accurately ripped
6 | (1/1) Accurately ripped
7 | (1/1) Accurately ripped
8 | (1/1) Accurately ripped
9 | (1/1) Accurately ripped
10 | (1/1) Accurately ripped
11 | (1/1) Accurately ripped
12 | (1/1) Accurately ripped
13 | (1/1) Accurately ripped
14 | (1/1) Accurately ripped
15 | (1/1) Accurately ripped
16 | (1/1) Accurately ripped
17 | (1/1) Accurately ripped
18 | (1/1) Accurately ripped
[AccurateRip ID: 00254c2f-01ec2c94-e40ce612] disk not present in database.

Track Peak [ CRC32 ] [W/O NULL] [ LOG ]
– 98,8 [2BCD4B5A] [B6996F0C] CRC32
01 98,8 [CB28978D] [108961E4]
02 98,8 [ADE4C857] [C6BCF4C0]
03 98,8 [8380DFAE] [94725800]
04 98,8 [83257337] [447BDD0A]
05 98,7 [B4918999] [A13BB1F9]
06 98,8 [A77F884F] [7F9D3826]
07 98,8 [AA01D783] [E0346BD5]
08 98,8 [B7D016EF] [B659DEA1]
09 98,8 [B9494041] [27B432F8]
10 98,8 [80EBDB97] [FF0A02BA]
11 98,8 [EDFC123B] [78C06AFE]
12 98,8 [100CC9A4] [E46C6A22]
13 98,7 [9B239065] [D3927EFA]
14 98,8 [D6615C53] [D905CE29]
15 98,8 [FA511B97] [34E346F1]
16 68,3 [D9F139CF] [C3B3D924]
17 98,8 [0A163EDF] [AD423C1B]
18 98,8 [804605AD] [815CB717]

* * * * * * *

Spooky Tooth - The Island Years: An Anthology 1967-1974 (2015) [9CD Box Set]

CD02: Spooky Tooth - It’s All About (1968)
EAC | Flac(Image) + Cue + Log & MP3 CBR 320Kbps
Universal-Island Records, 470 531-3 | ~ 345 or 170 Mb | Scans(png) -> 108 Mb
Rock / Blues Rock / Progressive Rock / Psychedelic Rock

This full-length debut from British blues-rockers Spooky Tooth has a tone similar to Traffic with its psychedelic take on the influential pop and soul music of the '60s. A few cover tunes including Janis Ian's "Society's Child" and the Nashville Teens' "Tobacco Road" are included, but original songs like the soulful ballad "It Hurts You So" and "Bubbles" (with its Beach Boys sensibility) are the real standouts. The cheery, psychedelic "It's All About a Roundabout" is the catchiest number by far. On this dreamy cut, vocalist/keyboardist Gary Wright demonstrates some sharp melodic and compositional instincts. Although Spooky Tooth eventually became better-known for their straightforward blues-rock, the trippy pop of It's All About counts as a career highlight for the group. Fans of late-'60s British rock are definitely advised to check out this impressive release.

by Jason Anderson, AMG

Tracklist:

01 Society’s Child
02 Love Really Changed Me
03 Here I Lived So Well
04 Too Much Of Nothing
05 Sunshine Help Me
06 It’s All About A Roundabout
07 Tobacco Road
08 It Hurts You So
09 Forget It, I’ve Got It
10 Bubbles

Bonus Tracks:
11 Sunshine Help Me (Original Version)
12 Weird (Single B-Side)
13 The Weight (Single A-Side)
14 Do Right People (Single B-Side)
15 Love Really Changed Me (Single A-Side)
16 Luger’s Groove (Single B-Side)
17 It Hurts You So (Mono Mix)
18 Sunshine Help Me (BBC Radio One ’Top Gear’ Session 1968)
19 Too Much Of Nothing (BBC Radio One ’Top Gear’ Session 1968)
20 The Weight (BBC Radio One ’Top Gear’ Session 1968)

Exact Audio Copy V1.0 beta 6 from 9. April 2015

EAC extraction logfile from 3. May 2015, 18:58

Spooky Tooth / It's All About

Used drive : PLEXTOR BD-R PX-B950SA Adapter: 1 ID: 1

Read mode : Secure
Utilize accurate stream : Yes
Defeat audio cache : Yes
Make use of C2 pointers : No

Read offset correction : 6
Overread into Lead-In and Lead-Out : No
Fill up missing offset samples with silence : Yes
Delete leading and trailing silent blocks : No
Null samples used in CRC calculations : Yes
Used interface : Native Win32 interface for Win NT & 2000

Used output format : Internal WAV Routines
Sample format : 44.100 Hz; 16 Bit; Stereo


TOC of the extracted CD

Track | Start | Length | Start sector | End sector
––––––––––––––––––––––––––––-
1 | 0:00.00 | 4:30.53 | 0 | 20302
2 | 4:30.53 | 3:33.52 | 20303 | 36329
3 | 8:04.30 | 5:07.10 | 36330 | 59364
4 | 13:11.40 | 3:57.34 | 59365 | 77173
5 | 17:08.74 | 3:07.09 | 77174 | 91207
6 | 20:16.08 | 2:45.01 | 91208 | 103583
7 | 23:01.09 | 5:15.41 | 103584 | 127249
8 | 28:16.50 | 3:04.53 | 127250 | 141102
9 | 31:21.28 | 3:26.54 | 141103 | 156606
10 | 34:48.07 | 2:53.46 | 156607 | 169627
11 | 37:41.53 | 2:58.52 | 169628 | 183029
12 | 40:40.30 | 4:01.59 | 183030 | 201163
13 | 44:42.14 | 3:07.50 | 201164 | 215238
14 | 47:49.64 | 4:42.42 | 215239 | 236430
15 | 52:32.31 | 3:18.10 | 236431 | 251290
16 | 55:50.41 | 3:57.45 | 251291 | 269110
17 | 59:48.11 | 3:02.39 | 269111 | 282799
18 | 62:50.50 | 2:03.41 | 282800 | 292065
19 | 64:54.16 | 3:52.03 | 292066 | 309468
20 | 68:46.19 | 3:14.70 | 309469 | 324088


Range status and errors

Selected range

Filename C:\Users\Meijin\Desktop\ALLexxess\Spooky Tooth\2015 Island Years 1967-1974 (9CD Box Set Universal Island)\1968 It's All About\Spooky Tooth - It's All About.wav

Peak level 98.8 %
Extraction speed 7.9 X
Range quality 100.0 %
Test CRC 074903DD
Copy CRC 074903DD
Copy OK

No errors occurred


AccurateRip summary

Track 1 not present in database
Track 2 not present in database
Track 3 not present in database
Track 4 not present in database
Track 5 not present in database
Track 6 not present in database
Track 7 not present in database
Track 8 not present in database
Track 9 not present in database
Track 10 not present in database
Track 11 not present in database
Track 12 not present in database
Track 13 not present in database
Track 14 not present in database
Track 15 not present in database
Track 16 not present in database
Track 17 not present in database
Track 18 not present in database
Track 19 not present in database
Track 20 not present in database

None of the tracks are present in the AccurateRip database

End of status report

–– CUETools DB Plugin V2.1.6

[CTDB TOCID: JyEoX7r4_OXg0l0Y_x.qCjjoDHA-] disk not present in database
Submit result: JyEoX7r4_OXg0l0Y_x.qCjjoDHA- has been uploaded


==== Log checksum AEEF2EC423DE44832C5A628FCA5A5D64DE7939039E486725C25BDF2E0DBA6C88 ====

foobar2000 1.2.9 / Dynamic Range Meter 1.1.1
log date: 2015-05-08 15:43:34

––––––––––––––––––––––––––––––––––––––––
Analyzed: Spooky Tooth / It's All About
––––––––––––––––––––––––––––––––––––––––

DR Peak RMS Duration Track
––––––––––––––––––––––––––––––––––––––––
DR10 -0.10 dB -12.86 dB 4:31 01-Society's Child
DR11 -0.10 dB -14.02 dB 3:34 02-Love Really Changed Me
DR11 -0.10 dB -15.19 dB 5:07 03-Here I Lived So Well
DR10 -0.10 dB -11.80 dB 3:57 04-Too Much Of Nothing
DR11 -0.10 dB -12.99 dB 3:07 05-Sunshine Help Me
DR11 -0.14 dB -14.06 dB 2:45 06-It's All About A Roundabout
DR10 -0.10 dB -14.44 dB 5:16 07-Tobacco Road
DR11 -0.16 dB -15.36 dB 3:05 08-It Hurts You So
DR9 -0.10 dB -13.40 dB 3:27 09-Forget It, Got It
DR11 -0.10 dB -15.76 dB 2:54 10-Bubbles
DR8 -0.10 dB -10.30 dB 2:59 11-Sunshine Help Me (Original Version) / Bonus Track
DR8 -0.92 dB -10.60 dB 4:02 12-Weird (Single B-Side) / Bonus Track
DR9 -0.58 dB -11.50 dB 3:08 13-The Weight (Single A-Side) / Bonus Track
DR8 -0.10 dB -9.45 dB 4:43 14-Do Right People (Single B-Side) / Bonus Track
DR8 -0.10 dB -10.08 dB 3:18 15-Love Really Changed Me (Single A-Side) / Bonus Track
DR8 -0.10 dB -10.29 dB 3:58 16-Luger’s Groove (Single B-Side) / Bonus Track
DR10 -0.10 dB -12.43 dB 3:03 17-It Hurts You So (Mono Mix) / Bonus Track
DR7 -0.10 dB -10.24 dB 2:04 18-Sunshine Help Me (BBC Radio One ’Top Gear’ Session 1968) / Bonus Track
DR9 -0.10 dB -10.13 dB 3:52 19-Too Much Of Nothing (BBC Radio One ’Top Gear’ Session 1968) / Bonus Track
DR8 -1.20 dB -10.07 dB 3:15 20-The Weight (BBC Radio One ’Top Gear’ Session 1968) / Bonus Track
––––––––––––––––––––––––––––––––––––––––

Number of tracks: 20
Official DR value: DR9

Samplerate: 44100 Hz
Channels: 2
Bits per sample: 16
Bitrate: 649 kbps
Codec: FLAC

[CUETools log; Date: 08.05.2015 15:43:36; Version: 2.1.4]
[CTDB TOCID: JyEoX7r4_OXg0l0Y_x.qCjjoDHA-] found.
Track | CTDB Status
1 | (2/2) Accurately ripped
2 | (2/2) Accurately ripped
3 | (2/2) Accurately ripped
4 | (2/2) Accurately ripped
5 | (2/2) Accurately ripped
6 | (2/2) Accurately ripped
7 | (2/2) Accurately ripped
8 | (2/2) Accurately ripped
9 | (2/2) Accurately ripped
10 | (2/2) Accurately ripped
11 | (2/2) Accurately ripped
12 | (2/2) Accurately ripped
13 | (2/2) Accurately ripped
14 | (2/2) Accurately ripped
15 | (2/2) Accurately ripped
16 | (2/2) Accurately ripped
17 | (2/2) Accurately ripped
18 | (2/2) Accurately ripped
19 | (2/2) Accurately ripped
20 | (2/2) Accurately ripped
[AccurateRip ID: 0036206a-030fcc05-2f10e114] disk not present in database.

Track Peak [ CRC32 ] [W/O NULL] [ LOG ]
– 98,8 [074903DD] [F1316A75] CRC32
01 98,8 [6451F1F6] [10B5321C]
02 98,8 [9066BEA6] [26308415]
03 98,8 [EDE8CCA8] [3540896C]
04 98,8 [A04ADE93] [D6779954]
05 98,8 [EF0DDA15] [4E361284]
06 98,3 [D86AE82D] [552E63F6]
07 98,8 [C0F94E64] [683D0E41]
08 98,2 [80A5757E] [8EAC630A]
09 98,8 [0557D8F0] [A843DF95]
10 98,8 [176019E9] [4F89272E]
11 98,8 [F3513827] [69908153]
12 89,9 [C5240A2F] [AFDF987C]
13 93,5 [56154D95] [96BA0343]
14 98,8 [79C8CCBA] [13B4E978]
15 98,8 [9114343A] [0ED4D994]
16 98,8 [0E62CB5C] [18E1263B]
17 98,8 [CB0865BD] [9E12A937]
18 98,8 [39375B4F] [1B77D988]
19 98,8 [8BC867E6] [3A02C514]
20 87,1 [7D5B4763] [5305A747]

* * * * * * *

Spooky Tooth - The Island Years: An Anthology 1967-1974 (2015) [9CD Box Set]

CD03: Spooky Tooth - Spooky Two (1969)
EAC | Flac(Image) + Cue + Log & MP3 CBR 320Kbps
Universal-Island Records, 470 531-4 | ~ 362 or 171 Mb | Scans(png) -> 106 Mb
Rock / Blues Rock / Progressive Rock / Psychedelic Rock

Spooky Two is this British blues-rock band's pièce de résistance. All eight of the tracks compound free-styled rock and loose-fitting guitar playing, resulting in some fantastic raw music. With Gary Wright on keyboards and vocals and lead singer Mike Harrison behind the microphone, their smooth, relaxed tempos and riffs mirrored bands like Savoy Brown and, at times, even the Yardbirds. With some emphasis on keyboards, songs like "Lost in My Dream" and the nine-minute masterpiece "Evil Woman" present a cool, nonchalant air that grooves and slides along perfectly. "I've Got Enough Heartache" whines and grieves with some sharp bass playing from Greg Ridley, while "Better by You, Better Than Me" is the catchiest of the songs, with its clinging hooks and desperate-sounding chorus. The last song, "Hangman Hang My Shell on a Tree," is a splendid example of the bandmembers' ability to play off of one another, mixing soulful lyrics with downtrodden instrumentation to conjure up the perfect melancholia. Although Spooky Tooth lasted about seven years, their other albums never really contained the same passion or talented collaborating by each individual musician as Spooky Two.

by Mike DeGagne, AMG

Tracklist:

01 Waitin’ For The Wind
02 Feelin’ Bad
03 I’ve Got Enough Heartaches
04 Evil Woman
05 Lost In My Dream
06 That Was Only Yesterday
07 Better by You, Better Than Me
08 Hangman, Hang My Shell On A Tree

Bonus Tracks:
09 Feelin’ Bad (BBC Radio One ’Top Gear’ Session 1968)
10 I Can’t Quit Her (BBC Radio One ’Top Gear’ Session 1968)
11 Blues Town (BBC Radio One ’Top Gear’ Session 1968)
12 Something Got Into Your Life (Recorded At Morgan Studios, November 1968)
13 When I Get Home (Recorded At Morgan Studios, November 1968)
14 Waitin’ For The Wind (First Mix / Mixed At Morgan Studios, February 1969)
15 Lost In My Dream (First Mix / Mixed At Morgan Studios, February 1969)
16 Better By You, Better Than Me (First Mix / Mixed At Morgan Studios, February 1969)
17 Pretty Woman (Single B-Side)

Exact Audio Copy V1.0 beta 6 from 9. April 2015

EAC extraction logfile from 3. May 2015, 18:23

Spooky Tooth / Spooky Two

Used drive : PLEXTOR BD-R PX-B950SA Adapter: 1 ID: 1

Read mode : Secure
Utilize accurate stream : Yes
Defeat audio cache : Yes
Make use of C2 pointers : No

Read offset correction : 6
Overread into Lead-In and Lead-Out : No
Fill up missing offset samples with silence : Yes
Delete leading and trailing silent blocks : No
Null samples used in CRC calculations : Yes
Used interface : Native Win32 interface for Win NT & 2000

Used output format : Internal WAV Routines
Sample format : 44.100 Hz; 16 Bit; Stereo


TOC of the extracted CD

Track | Start | Length | Start sector | End sector
––––––––––––––––––––––––––––-
1 | 0:00.00 | 3:44.70 | 0 | 16869
2 | 3:44.70 | 3:24.28 | 16870 | 32197
3 | 7:09.23 | 3:29.01 | 32198 | 47873
4 | 10:38.24 | 9:08.62 | 47874 | 89035
5 | 19:47.11 | 5:07.36 | 89036 | 112096
6 | 24:54.47 | 3:55.03 | 112097 | 129724
7 | 28:49.50 | 3:41.66 | 129725 | 146365
8 | 32:31.41 | 5:50.18 | 146366 | 172633
9 | 38:21.59 | 2:54.70 | 172634 | 185753
10 | 41:16.54 | 3:02.33 | 185754 | 199436
11 | 44:19.12 | 3:34.58 | 199437 | 215544
12 | 47:53.70 | 3:26.62 | 215545 | 231056
13 | 51:20.57 | 4:12.42 | 231057 | 249998
14 | 55:33.24 | 3:30.34 | 249999 | 265782
15 | 59:03.58 | 5:45.61 | 265783 | 291718
16 | 64:49.44 | 4:08.30 | 291719 | 310348
17 | 68:57.74 | 3:27.02 | 310349 | 325875


Range status and errors

Selected range

Filename C:\Users\Meijin\Desktop\ALLexxess\Spooky Tooth\2015 Island Years 1967-1974 (9CD Box Set Universal Island)\1969 Spooky Two\Spooky Tooth - Spooky Two.wav

Peak level 98.8 %
Extraction speed 8.0 X
Range quality 100.0 %
Test CRC DFD36946
Copy CRC DFD36946
Copy OK

No errors occurred


AccurateRip summary

Track 1 not present in database
Track 2 not present in database
Track 3 not present in database
Track 4 not present in database
Track 5 not present in database
Track 6 not present in database
Track 7 not present in database
Track 8 not present in database
Track 9 not present in database
Track 10 not present in database
Track 11 not present in database
Track 12 not present in database
Track 13 not present in database
Track 14 not present in database
Track 15 not present in database
Track 16 not present in database
Track 17 not present in database

None of the tracks are present in the AccurateRip database

End of status report

–– CUETools DB Plugin V2.1.6

[CTDB TOCID: oKwG2DB.g1QyM5owfdyRmBjwqbM-] disk not present in database
Submit result: oKwG2DB.g1QyM5owfdyRmBjwqbM- has been uploaded


==== Log checksum 85AE32A0ED4014F000D1E11EB4048F485E460860E4B34C82BAF477F3AC7E1056 ====

foobar2000 1.2.9 / Dynamic Range Meter 1.1.1
log date: 2015-05-08 15:43:55

––––––––––––––––––––––––––––––––––––––––
Analyzed: Spooky Tooth / Spooky Two
––––––––––––––––––––––––––––––––––––––––

DR Peak RMS Duration Track
––––––––––––––––––––––––––––––––––––––––
DR10 -0.10 dB -13.99 dB 3:45 01-Waitin' For The Wind
DR11 -0.10 dB -14.68 dB 3:24 02-Feelin' Bad
DR11 -0.10 dB -14.87 dB 3:29 03-I've Got Enough Heartaches
DR9 -0.10 dB -12.73 dB 9:09 04-Evil Woman
DR10 -0.10 dB -14.53 dB 5:07 05-Lost In My Dream
DR12 -0.10 dB -15.17 dB 3:55 06-That Was Only Yesterday
DR10 -0.10 dB -14.14 dB 3:42 07-Better By You, Better Than Me
DR12 -0.10 dB -15.04 dB 5:50 08-Hangman Hang My Shell On A Tree
DR8 -0.34 dB -10.00 dB 2:55 09-Feelin’ Bad (BBC Radio One ’Top Gear’ Session 1968) / Bonus Track
DR9 -0.10 dB -9.81 dB 3:02 10-I Can’t Quit Her (BBC Radio One ’Top Gear’ Session 1968) / Bonus Track
DR9 -0.44 dB -10.55 dB 3:35 11-Blues Town (BBC Radio One ’Top Gear’ Session 1968) / Bonus Track
DR10 -0.10 dB -12.33 dB 3:27 12-Something Got Into Your Life (Recorded At Morgan Studios, November 1968) / Bo…
DR8 -0.10 dB -11.10 dB 4:13 13-When I Get Home (Recorded At Morgan Studios, November 1968) / Bonus Track
DR11 -0.10 dB -14.22 dB 3:30 14-Waitin’ For The Wind (First Mix / Mixed At Morgan Studios, February 1969) / B…
DR11 -0.10 dB -14.47 dB 5:46 15-Lost In My Dream (First Mix / Mixed At Morgan Studios, February 1969) / Bonus…
DR10 -0.10 dB -13.49 dB 4:08 16-Better By You, Better Than Me (First Mix / Mixed At Morgan Studios, February …
DR10 -0.31 dB -11.62 dB 3:27 17-Pretty Woman (Single B-Side) / Bonus Track
––––––––––––––––––––––––––––––––––––––––

Number of tracks: 17
Official DR value: DR10

Samplerate: 44100 Hz
Channels: 2
Bits per sample: 16
Bitrate: 678 kbps
Codec: FLAC

[CUETools log; Date: 08.05.2015 15:43:58; Version: 2.1.4]
[CTDB TOCID: oKwG2DB.g1QyM5owfdyRmBjwqbM-] found.
Track | CTDB Status
1 | (1/1) Accurately ripped
2 | (1/1) Accurately ripped
3 | (1/1) Accurately ripped
4 | (1/1) Accurately ripped
5 | (1/1) Accurately ripped
6 | (1/1) Accurately ripped
7 | (1/1) Accurately ripped
8 | (1/1) Accurately ripped
9 | (1/1) Accurately ripped
10 | (1/1) Accurately ripped
11 | (1/1) Accurately ripped
12 | (1/1) Accurately ripped
13 | (1/1) Accurately ripped
14 | (1/1) Accurately ripped
15 | (1/1) Accurately ripped
16 | (1/1) Accurately ripped
17 | (1/1) Accurately ripped
[AccurateRip ID: 002e1def-0243fc0a-f710f911] disk not present in database.

Track Peak [ CRC32 ] [W/O NULL] [ LOG ]
– 98,8 [DFD36946] [D4F6D40B] CRC32
01 98,8 [1F9AB7B7] [FEA51D6A]
02 98,8 [A5AB99BE] [244D6710]
03 98,8 [CBF6213A] [874FB724]
04 98,8 [667E863B] [0A89773C]
05 98,8 [61BC0E3A] [46881DD3]
06 98,8 [C710DEA5] [FA65349B]
07 98,8 [812D6602] [69F7E406]
08 98,8 [DE613C05] [6A0D739A]
09 96,1 [E8245F31] [85632DF2]
10 98,8 [1459A398] [C76A2733]
11 95,0 [127E77E0] [246A0596]
12 98,8 [0EF805A6] [45D0066A]
13 98,8 [1262ADD3] [101EC4B9]
14 98,8 [5B03E3A7] [71CFC021]
15 98,8 [1646D93A] [C78BF6AE]
16 98,8 [BF9AECA2] [287426DC]
17 96,4 [D01F4F68] [C98EE89E]

* * * * * * *

Spooky Tooth - The Island Years: An Anthology 1967-1974 (2015) [9CD Box Set]

CD04: Spooky Tooth and Pierre Henry - Ceremony: An Electronic Mass (1969)
EAC | Flac(Image) + Cue + Log & MP3 CBR 320Kbps
Universal-Island Records, 470 531-5 | ~ 393 or 157 Mb | Scans(png) -> 93 Mb
Rock / Blues Rock / Progressive Rock / Psychedelic Rock

It's fair to say that Ceremony: An Electric Mass is unlike any other release by an English band normally rooted in the blues. Think of it as Spooky Tooth's version of Concerto for Group and Orchestra by Deep Purple, in which, after two or three promising blues-based rock releases, one member of the band somehow convinces the others to go for a wildly ambitious, experimental concept album. Jon Lord persuaded Deep Purple to dive into the deep end, and Gary Wright convinced Spooky Tooth to welcome acclaimed French composer and musique concrète pioneer Pierre Henry for this electronic mass. Henry's atonal arrangements don't fare too badly against Spooky Tooth's piercing guitars and bluesy wail, although Wright left the band after Ceremony (just as Lord never had the same influence on Purple again, leaving Ritchie Blackmore to lead them on to heavy metal glory).

by Mark Allan, AMG

Tracklist:

01 Have Mercy
02 Jubilation
03 Confession
04 Prayer
05 Offering
06 Hosanna

Bonus Tracks:
07 That Was Only Yesterday (Single A-Side)
08 Waiting For The Wind (Single A-Side)
09 Feelin’ Bad (Single B-Side)
10 Have Mercy (First Version)
11 Shine A Light On Me

Exact Audio Copy V1.0 beta 6 from 9. April 2015

EAC extraction logfile from 3. May 2015, 17:39

Spooky Tooth & Pierre Henry / Ceremony: An Electronic Mass

Used drive : PLEXTOR BD-R PX-B950SA Adapter: 1 ID: 1

Read mode : Secure
Utilize accurate stream : Yes
Defeat audio cache : Yes
Make use of C2 pointers : No

Read offset correction : 6
Overread into Lead-In and Lead-Out : No
Fill up missing offset samples with silence : Yes
Delete leading and trailing silent blocks : No
Null samples used in CRC calculations : Yes
Used interface : Native Win32 interface for Win NT & 2000

Used output format : Internal WAV Routines
Sample format : 44.100 Hz; 16 Bit; Stereo


TOC of the extracted CD

Track | Start | Length | Start sector | End sector
––––––––––––––––––––––––––––-
1 | 0:00.00 | 7:54.11 | 0 | 35560
2 | 7:54.11 | 8:26.23 | 35561 | 73533
3 | 16:20.34 | 6:48.33 | 73534 | 104166
4 | 23:08.67 | 10:51.05 | 104167 | 152996
5 | 33:59.72 | 3:29.11 | 152997 | 168682
6 | 37:29.08 | 7:39.48 | 168683 | 203155
7 | 45:08.56 | 3:52.46 | 203156 | 220601
8 | 49:01.27 | 3:30.39 | 220602 | 236390
9 | 52:31.66 | 3:18.44 | 236391 | 251284
10 | 55:50.35 | 6:09.51 | 251285 | 279010
11 | 62:00.11 | 4:36.16 | 279011 | 299726


Range status and errors

Selected range

Filename C:\Users\Meijin\Desktop\ALLexxess\Spooky Tooth\2015 Island Years 1967-1974 (9CD Box Set Universal Island)\1969 Ceremony An Electronic Mass\Spooky Tooth & Pierre Henry - Ceremony An Electronic Mass.wav

Peak level 98.8 %
Extraction speed 7.6 X
Range quality 100.0 %
Test CRC DF000026
Copy CRC DF000026
Copy OK

No errors occurred


AccurateRip summary

Track 1 not present in database
Track 2 not present in database
Track 3 not present in database
Track 4 not present in database
Track 5 not present in database
Track 6 not present in database
Track 7 not present in database
Track 8 not present in database
Track 9 not present in database
Track 10 not present in database
Track 11 not present in database

None of the tracks are present in the AccurateRip database

End of status report

–– CUETools DB Plugin V2.1.6

[CTDB TOCID: qnFAoDROuAH__dW7yjqbAQ6PqlE-] disk not present in database
Submit result: qnFAoDROuAH__dW7yjqbAQ6PqlE- has been uploaded


==== Log checksum 2860423ECA20B507FD71751A57CC7D0D27CBDE54E6B6C1B8FF70E945BF535659 ====

foobar2000 1.2.9 / Dynamic Range Meter 1.1.1
log date: 2015-05-08 15:44:18

––––––––––––––––––––––––––––––––––––––––
Analyzed: Spooky Tooth & Pierre Henry / Ceremony: An Electronic Mass
––––––––––––––––––––––––––––––––––––––––

DR Peak RMS Duration Track
––––––––––––––––––––––––––––––––––––––––
DR7 -0.27 dB -10.17 dB 7:54 01-Have Mercy
DR7 -0.49 dB -11.21 dB 8:26 02-Jubilation
DR7 -0.62 dB -10.85 dB 6:48 03-Confession
DR11 -1.06 dB -15.72 dB 10:51 04-Prayer
DR7 -0.66 dB -10.53 dB 3:29 05-Offering
DR6 -0.42 dB -9.68 dB 7:40 06-Hosanna
DR5 -0.25 dB -7.31 dB 3:53 07-That Was Only Yesterday (Single A-Side) / Bonus Track
DR5 -0.10 dB -7.50 dB 3:31 08-Waiting For The Wind (Single A-Side) / Bonus Track
DR5 -0.10 dB -7.55 dB 3:19 09-Feelin’ Bad (Single B-Side) / Bonus Track
DR8 -0.10 dB -10.55 dB 6:10 10-Have Mercy (First Version) / Bonus Track
DR10 -0.10 dB -11.47 dB 4:36 11-Shine A Light On Me / Bonus Track
––––––––––––––––––––––––––––––––––––––––

Number of tracks: 11
Official DR value: DR7

Samplerate: 44100 Hz
Channels: 2
Bits per sample: 16
Bitrate: 800 kbps
Codec: FLAC

[CUETools log; Date: 08.05.2015 15:44:20; Version: 2.1.4]
[CTDB TOCID: qnFAoDROuAH__dW7yjqbAQ6PqlE-] found.
Track | CTDB Status
1 | (2/2) Accurately ripped
2 | (2/2) Accurately ripped
3 | (2/2) Accurately ripped
4 | (2/2) Accurately ripped
5 | (2/2) Accurately ripped
6 | (2/2) Accurately ripped
7 | (2/2) Accurately ripped
8 | (2/2) Accurately ripped
9 | (2/2) Accurately ripped
10 | (2/2) Accurately ripped
11 | (2/2) Accurately ripped
[AccurateRip ID: 001ee69a-010312a6-870f9c0b] disk not present in database.

Track Peak [ CRC32 ] [W/O NULL] [ LOG ]
– 98,8 [DF000026] [8B3004ED] CRC32
01 96,9 [C2371686] [828488B4]
02 94,5 [D1E73D54] [F84A2027]
03 93,1 [92FC51A3] [32189C11]
04 88,5 [0DE05219] [DA85D2F0]
05 92,6 [4F4977C6] [6F99C384]
06 95,2 [526C7E22] [FE966C5B]
07 97,1 [F2A8D191] [95154599]
08 98,8 [C6DEA57C] [B73957C5]
09 98,8 [7B2E42AE] [3105E2A5]
10 98,8 [C5362EDB] [A6DF22F0]
11 98,8 [55C6231E] [9362EF72]

* * * * * * *

Spooky Tooth - The Island Years: An Anthology 1967-1974 (2015) [9CD Box Set]

CD05: Spooky Tooth Featuring Mike Harrison - The Last Puff (1970)
EAC | Flac(Image) + Cue + Log & MP3 CBR 320Kbps
Universal-Island Records, 470 531-6 | ~ 325 or 144 Mb | Scans(png) -> 107 Mb
Rock / Blues Rock / Progressive Rock / Psychedelic Rock

Perhaps "The Last Gasp" would have been a more apt title here. Spooky Tooth appeared to be on its last legs, and being propped up by members of the Grease Band, this record should have been merely one of those contract fulfillments, but it isn't. It's a good, solid effort that includes a burning cover of the Beatles' "I Am the Walrus." Unfortunately, Spooky Tooth didn't stay together to reap the rewards of this new combination of musicians.

by James Chrispell, AMG

Tracklist:

01 I Am The Walrus
02 The Wrong Time
03 Something To Say
04 Nobody There At All
05 Down River
06 Son Of Your Father
07 The Last Puff

Bonus Tracks:
08 Son Of Your Father (Single A-Side)
09 I Am The Walrus (Single A-Side)
10 Hangman Hang My Shell On A Tree (Mono Single B-Side)
11 Nobody There At All (Mono Promo Single A-Side)
12 The Wrong Time (First Mix By Glyn Johns)
13 The Weight (1970 Remix / US Album ’Tobacco Road’)

Exact Audio Copy V1.0 beta 6 from 9. April 2015

EAC extraction logfile from 3. May 2015, 12:32

Spooky Tooth / The Last Puff

Used drive : PLEXTOR BD-R PX-B950SA Adapter: 1 ID: 1

Read mode : Secure
Utilize accurate stream : Yes
Defeat audio cache : Yes
Make use of C2 pointers : No

Read offset correction : 6
Overread into Lead-In and Lead-Out : No
Fill up missing offset samples with silence : Yes
Delete leading and trailing silent blocks : No
Null samples used in CRC calculations : Yes
Used interface : Native Win32 interface for Win NT & 2000

Used output format : Internal WAV Routines
Sample format : 44.100 Hz; 16 Bit; Stereo


TOC of the extracted CD

Track | Start | Length | Start sector | End sector
––––––––––––––––––––––––––––-
1 | 0:00.00 | 6:25.52 | 0 | 28926
2 | 6:25.52 | 5:13.09 | 28927 | 52410
3 | 11:38.61 | 5:53.59 | 52411 | 78944
4 | 17:32.45 | 4:02.30 | 78945 | 97124
5 | 21:35.00 | 4:50.54 | 97125 | 118928
6 | 26:25.54 | 3:55.66 | 118929 | 136619
7 | 30:21.45 | 3:42.73 | 136620 | 153342
8 | 34:04.43 | 3:39.67 | 153343 | 169834
9 | 37:44.35 | 5:22.31 | 169835 | 194015
10 | 43:06.66 | 5:43.12 | 194016 | 219752
11 | 48:50.03 | 3:46.41 | 219753 | 236743
12 | 52:36.44 | 5:08.48 | 236744 | 259891
13 | 57:45.17 | 3:14.55 | 259892 | 274496


Range status and errors

Selected range

Filename C:\Users\Meijin\Desktop\ALLexxess\Spooky Tooth\2015 Island Years 1967-1974 (9CD Box Set Universal Island)\1970 The Last Puff\Spooky Tooth - The Last Puff.wav

Peak level 98.8 %
Extraction speed 6.0 X
Range quality 99.9 %
Test CRC A9910836
Copy CRC A9910836
Copy OK

No errors occurred


AccurateRip summary

Track 1 not present in database
Track 2 not present in database
Track 3 not present in database
Track 4 not present in database
Track 5 not present in database
Track 6 not present in database
Track 7 not present in database
Track 8 not present in database
Track 9 not present in database
Track 10 not present in database
Track 11 not present in database
Track 12 not present in database
Track 13 not present in database

None of the tracks are present in the AccurateRip database

End of status report

–– CUETools DB Plugin V2.1.6

[CTDB TOCID: HBPqG2S19iX09O9AujVSWzT7Ozk-] disk not present in database
Submit result: HBPqG2S19iX09O9AujVSWzT7Ozk- has been uploaded


==== Log checksum 416DB7AFF563EA0EA0AD148C7567E24FDB80649AD34E90B3F52D62D4DB3B7570 ====

foobar2000 1.2.9 / Dynamic Range Meter 1.1.1
log date: 2015-05-08 15:44:38

––––––––––––––––––––––––––––––––––––––––
Analyzed: Spooky Tooth / The Last Puff
––––––––––––––––––––––––––––––––––––––––

DR Peak RMS Duration Track
––––––––––––––––––––––––––––––––––––––––
DR10 -0.10 dB -13.19 dB 6:26 01-I Am The Walrus
DR11 -0.10 dB -13.57 dB 5:13 02-The Wrong Time
DR11 -0.10 dB -15.05 dB 5:54 03-Something To Say
DR11 -0.10 dB -13.17 dB 4:02 04-Nobody There At All
DR12 -0.10 dB -15.72 dB 4:51 05-Down River
DR11 -0.10 dB -12.92 dB 3:56 06-Son Of Your Father
DR13 -0.10 dB -16.86 dB 3:43 07-The Last Puff
DR8 -0.10 dB -10.44 dB 3:40 08-Son Of Your Father (Single A-Side) / Bonus Track
DR7 -0.10 dB -9.83 dB 5:22 09-I Am The Walrus (Single A-Side) / Bonus Track
DR7 -0.24 dB -9.95 dB 5:43 10-Hangman Hang My Shell On A Tree (Mono Single B-Side) / Bonus Track
DR11 -0.10 dB -12.49 dB 3:47 11-Nobody There At All (Mono Promo Single A-Side) / Bonus Track
DR11 -0.10 dB -13.23 dB 5:09 12-The Wrong Time (First Mix By Glyn Johns) / Bonus Track
DR11 -0.30 dB -13.17 dB 3:15 13-The Weight (1970 Remix / US Album ’Tobacco Road’) / Bonus Track
––––––––––––––––––––––––––––––––––––––––

Number of tracks: 13
Official DR value: DR10

Samplerate: 44100 Hz
Channels: 2
Bits per sample: 16
Bitrate: 722 kbps
Codec: FLAC

[CUETools log; Date: 08.05.2015 15:44:41; Version: 2.1.4]
[CTDB TOCID: HBPqG2S19iX09O9AujVSWzT7Ozk-] found.
Track | CTDB Status
1 | (2/2) Accurately ripped
2 | (2/2) Accurately ripped
3 | (2/2) Accurately ripped
4 | (2/2) Accurately ripped
5 | (2/2) Accurately ripped
6 | (2/2) Accurately ripped
7 | (2/2) Accurately ripped
8 | (2/2) Accurately ripped
9 | (2/2) Accurately ripped
10 | (2/2) Accurately ripped
11 | (2/2) Accurately ripped
12 | (2/2) Accurately ripped
13 | (2/2) Accurately ripped
[AccurateRip ID: 001ed6ad-012f1057-c30e4b0d] disk not present in database.

Track Peak [ CRC32 ] [W/O NULL] [ LOG ]
– 98,8 [A9910836] [A481BD27] CRC32
01 98,8 [DF70CC5D] [6F85E81F]
02 98,8 [A1BAA521] [6DA29A1D]
03 98,8 [5FC16A3A] [49E1ADDB]
04 98,8 [5CCD5209] [1BCACD43]
05 98,8 [A69B1C53] [E3350E1B]
06 98,8 [0A7DBA51] [6125021C]
07 98,8 [102D0FA2] [50ADA42B]
08 98,8 [C09B63C7] [FE153346]
09 98,8 [A10FCDF9] [2BE2DF79]
10 97,2 [FFA909EB] [2C49F3AD]
11 98,8 [A42DA390] [E04D2812]
12 98,8 [FA3453ED] [75C7616B]
13 96,6 [A5C9AB4F] [159EC411]

* * * * * * *

Spooky Tooth - The Island Years: An Anthology 1967-1974 (2015) [9CD Box Set]

CD06: Spooky Tooth - You Broke My Heart…So I Busted Your Jaw (1973)
EAC | Flac(Image) + Cue + Log & MP3 CBR 320Kbps
Universal-Island Records, 470 531-7 | ~ 216 or 83 Mb | Scans(png) -> 86 Mb
Rock / Blues Rock / Progressive Rock / Psychedelic Rock

Sadly, the most distinctive thing about Spooky Tooth's sixth album is its title. While the band became a well-oiled ensemble of talented musicians (especially with the addition of future Foreigner guitarist Mick Jones), it wasn't especially groundbreaking or original, relying too much on generic early-'70s blues-rock, with pedestrian, humorless lyrics. The gospel choir in "Holy Water" and the funky guitars in "Wildfire" are ties to the older, less heavy Spooky Tooth, but the rest, even the ballad "Self Seeking Man," are standard-issue Led Zeppelin/Bad Company-style hard rock. The playing is impressive (especially Jones' guitar leads and Gary Wright's keyboards), but without much in the way of memorable songs, it's mostly wasted. The lyrics aren't any more notable, consisting of either simple love songs or odes to self-pity. The one exception, "Cotton Growing Man," is a bizarre diatribe against Southern slave owners that sounds about 100 years out of date. Fans of the genre should probably find You Broke My Heart enjoyable, but others need not bother.

by Victor W. Valdivia, AMG

Tracklist:

01 Cotton Growing Man
02 Old As I Was Born
03 This Time Around
04 Holy Water
05 Wild Fire
06 Self-Seeking Man
07 Times Have Changed
08 Moriah

Exact Audio Copy V1.0 beta 6 from 9. April 2015

EAC extraction logfile from 3. May 2015, 11:56

Spooky Tooth / You Broke My Heart…So I Busted Your Jaw

Used drive : PLEXTOR BD-R PX-B950SA Adapter: 1 ID: 1

Read mode : Secure
Utilize accurate stream : Yes
Defeat audio cache : Yes
Make use of C2 pointers : No

Read offset correction : 6
Overread into Lead-In and Lead-Out : No
Fill up missing offset samples with silence : Yes
Delete leading and trailing silent blocks : No
Null samples used in CRC calculations : Yes
Used interface : Native Win32 interface for Win NT & 2000

Used output format : Internal WAV Routines
Sample format : 44.100 Hz; 16 Bit; Stereo


TOC of the extracted CD

Track | Start | Length | Start sector | End sector
––––––––––––––––––––––––––––-
1 | 0:00.00 | 4:39.48 | 0 | 20972
2 | 4:39.48 | 4:41.55 | 20973 | 42102
3 | 9:21.28 | 4:09.24 | 42103 | 60801
4 | 13:30.52 | 3:29.58 | 60802 | 76534
5 | 17:00.35 | 4:07.34 | 76535 | 95093
6 | 21:07.69 | 3:48.29 | 95094 | 112222
7 | 24:56.23 | 3:54.49 | 112223 | 129821
8 | 28:50.72 | 6:21.59 | 129822 | 158455


Range status and errors

Selected range

Filename C:\Users\Meijin\Desktop\ALLexxess\Spooky Tooth\2015 Island Years 1967-1974 (9CD Box Set Universal Island)\1973 You Broke My Heart…So I Busted Your Jaw\Spooky Tooth - You Broke My Heart…So I Busted Your Jaw.wav

Peak level 98.8 %
Extraction speed 6.4 X
Range quality 100.0 %
Test CRC 96608FAB
Copy CRC 96608FAB
Copy OK

No errors occurred


AccurateRip summary

Track 1 not present in database
Track 2 not present in database
Track 3 not present in database
Track 4 not present in database
Track 5 not present in database
Track 6 not present in database
Track 7 not present in database
Track 8 not present in database

None of the tracks are present in the AccurateRip database

End of status report

–– CUETools DB Plugin V2.1.6

[CTDB TOCID: SOmDZzpjCB5TnqjPDf8xzk7Q.yo-] disk not present in database
Submit result: SOmDZzpjCB5TnqjPDf8xzk7Q.yo- has been uploaded


==== Log checksum 0085B2BADFB5DBBFE1B35B9ECB67391D73373B8F19D328107E6E1895F7DB6B32 ====

foobar2000 1.2.9 / Dynamic Range Meter 1.1.1
log date: 2015-05-08 15:45:00

––––––––––––––––––––––––––––––––––––––––
Analyzed: Spooky Tooth / You Broke My Heart…So I Busted Your Jaw
––––––––––––––––––––––––––––––––––––––––

DR Peak RMS Duration Track
––––––––––––––––––––––––––––––––––––––––
DR8 -0.10 dB -9.89 dB 4:40 01-Cotton Growing Man
DR10 -0.24 dB -12.36 dB 4:42 02-Old As I Was Born
DR10 -0.10 dB -11.06 dB 4:09 03-This Time Around
DR10 -2.32 dB -16.36 dB 3:30 04-Holy Water
DR10 -0.25 dB -13.15 dB 4:07 05-Wildfire
DR10 -0.10 dB -12.80 dB 3:48 06-Self-Seeking Man
DR11 -1.67 dB -19.03 dB 3:55 07-Times Have Changed
DR10 -0.27 dB -13.51 dB 6:22 08-Moriah
––––––––––––––––––––––––––––––––––––––––

Number of tracks: 8
Official DR value: DR10

Samplerate: 44100 Hz
Channels: 2
Bits per sample: 16
Bitrate: 831 kbps
Codec: FLAC

[CUETools log; Date: 08.05.2015 15:45:03; Version: 2.1.4]
[CTDB TOCID: SOmDZzpjCB5TnqjPDf8xzk7Q.yo-] found.
Track | CTDB Status
1 | (2/2) Accurately ripped
2 | (2/2) Accurately ripped
3 | (2/2) Accurately ripped
4 | (2/2) Accurately ripped
5 | (2/2) Accurately ripped
6 | (2/2) Accurately ripped
7 | (2/2) Accurately ripped
8 | (2/2) Accurately ripped
[AccurateRip ID: 000a9ec8-00466b20-60084008] disk not present in database.

Track Peak [ CRC32 ] [W/O NULL] [ LOG ]
– 98,8 [96608FAB] [0B0E96C1] CRC32
01 98,8 [A38540EB] [4BEB59F8]
02 97,2 [44907C4C] [D5771F17]
03 98,8 [BEE4188E] [726CDFEC]
04 76,5 [F87A8C4B] [E98F3DE3]
05 97,1 [E5DD26E0] [8600DE55]
06 98,8 [CAB3196F] [86741DC3]
07 82,5 [F53E4EAE] [04F9B2B1]
08 96,9 [6364334F] [4DF16B77]

* * * * * * *

Spooky Tooth - The Island Years: An Anthology 1967-1974 (2015) [9CD Box Set]

CD07: Spooky Tooth - Witness (1973)
EAC | Flac(Image) + Cue + Log & MP3 CBR 320Kbps
Universal-Island Records, 470 531-9 | ~ 230 or 95 Mb | Scans(png) -> 104 Mb
Rock / Blues Rock / Progressive Rock / Psychedelic Rock

Witness is an album released by Spooky Tooth in 1973. For this album, original drummer Mike Kellie returned and substantially replaced Bryson Graham. Gary Wright became the dominant songwriting influence at this stage of the band's history. Co-lead singer Mike Harrison left the band following the release of the album

~ wiki

Tracklist:

01 Ocean Of Power
02 Wings On My Heart
03 As Long As The World Keeps Turning
04 Don’t Ever Stray Away
05 Things Change
06 All Sewn Up
07 Dream Me A Mountain
08 Sunlight Of My Mind
09 Pyramids

Bonus Track:
10 All Sewn Up (Alternate Mix)

Exact Audio Copy V1.0 beta 6 from 9. April 2015

EAC extraction logfile from 3. May 2015, 11:34

Spooky Tooth / Witness

Used drive : PLEXTOR BD-R PX-B950SA Adapter: 1 ID: 1

Read mode : Secure
Utilize accurate stream : Yes
Defeat audio cache : Yes
Make use of C2 pointers : No

Read offset correction : 6
Overread into Lead-In and Lead-Out : No
Fill up missing offset samples with silence : Yes
Delete leading and trailing silent blocks : No
Null samples used in CRC calculations : Yes
Used interface : Native Win32 interface for Win NT & 2000

Used output format : Internal WAV Routines
Sample format : 44.100 Hz; 16 Bit; Stereo


TOC of the extracted CD

Track | Start | Length | Start sector | End sector
––––––––––––––––––––––––––––-
1 | 0:00.00 | 4:41.23 | 0 | 21097
2 | 4:41.23 | 3:32.41 | 21098 | 37038
3 | 8:13.64 | 3:39.38 | 37039 | 53501
4 | 11:53.27 | 3:14.11 | 53502 | 68062
5 | 15:07.38 | 4:19.15 | 68063 | 87502
6 | 19:26.53 | 3:45.02 | 87503 | 104379
7 | 23:11.55 | 3:31.21 | 104380 | 120225
8 | 26:43.01 | 4:56.28 | 120226 | 142453
9 | 31:39.29 | 4:32.16 | 142454 | 162869
10 | 36:11.45 | 4:02.19 | 162870 | 181038


Range status and errors

Selected range

Filename C:\Users\Meijin\Desktop\ALLexxess\Spooky Tooth\2015 Island Years 1967-1974 (9CD Box Set Universal Island)\1973 Witness\Spooky Tooth - Witness.wav

Peak level 98.8 %
Extraction speed 6.7 X
Range quality 100.0 %
Test CRC 2294042F
Copy CRC 2294042F
Copy OK

No errors occurred


AccurateRip summary

Track 1 not present in database
Track 2 not present in database
Track 3 not present in database
Track 4 not present in database
Track 5 not present in database
Track 6 not present in database
Track 7 not present in database
Track 8 not present in database
Track 9 not present in database
Track 10 not present in database

None of the tracks are present in the AccurateRip database

End of status report

–– CUETools DB Plugin V2.1.6

[CTDB TOCID: 6PyOxckykUdTK2_jmSdyhuzYNlI-] disk not present in database
Submit result: 6PyOxckykUdTK2_jmSdyhuzYNlI- has been uploaded


==== Log checksum AB36A56FDBCB3B19CA975CECD6027AC19D60D7E97FC00F5019F83515E74F5F89 ====

foobar2000 1.2.9 / Dynamic Range Meter 1.1.1
log date: 2015-05-08 15:45:18

––––––––––––––––––––––––––––––––––––––––
Analyzed: Spooky Tooth / Witness
––––––––––––––––––––––––––––––––––––––––

DR Peak RMS Duration Track
––––––––––––––––––––––––––––––––––––––––
DR10 -0.10 dB -12.92 dB 4:41 01-Ocean Of Power
DR12 -0.10 dB -14.43 dB 3:33 02-Wings Of My Heart
DR10 -0.10 dB -12.52 dB 3:40 03-As Long As The World Keeps Turning
DR9 -0.10 dB -11.63 dB 3:14 04-Don't Ever Stray Away
DR10 -0.10 dB -11.45 dB 4:19 05-Things Change
DR10 -0.10 dB -12.04 dB 3:45 06-All Sewn Up
DR10 -0.10 dB -12.13 dB 3:31 07-Dream Me A Mountain
DR10 -0.10 dB -12.24 dB 4:56 08-Sunlight Of My Mind
DR9 -0.10 dB -12.79 dB 4:32 09-Pyramids
DR9 -0.79 dB -11.58 dB 4:02 10-All Sewn Up (Alternate Mix) / Bonus Track
––––––––––––––––––––––––––––––––––––––––

Number of tracks: 10
Official DR value: DR10

Samplerate: 44100 Hz
Channels: 2
Bits per sample: 16
Bitrate: 774 kbps
Codec: FLAC

[CUETools log; Date: 08.05.2015 15:45:21; Version: 2.1.4]
[CTDB TOCID: 6PyOxckykUdTK2_jmSdyhuzYNlI-] found.
Track | CTDB Status
1 | (2/2) Accurately ripped
2 | (2/2) Accurately ripped
3 | (2/2) Accurately ripped
4 | (2/2) Accurately ripped
5 | (2/2) Accurately ripped
6 | (2/2) Accurately ripped
7 | (2/2) Accurately ripped
8 | (2/2) Accurately ripped
9 | (2/2) Accurately ripped
10 | (2/2) Accurately ripped
[AccurateRip ID: 000eecfe-00776f8a-84096d0a] disk not present in database.

Track Peak [ CRC32 ] [W/O NULL] [ LOG ]
– 98,8 [2294042F] [7B123184] CRC32
01 98,8 [DBCF2032] [F2282413]
02 98,8 [7D478049] [ADFDF682]
03 98,8 [5B115093] [1A7E69EF]
04 98,8 [1019D969] [B9F56973]
05 98,8 [47984D90] [68089F61]
06 98,8 [80D486CA] [499546DE]
07 98,8 [AAAC6F6D] [0B63ADE9]
08 98,8 [F0D7848B] [FD22C83D]
09 98,8 [FFA97D37] [1FE02601]
10 91,2 [8A2C1464] [A681F8A9]

* * * * * * *

Spooky Tooth - The Island Years: An Anthology 1967-1974 (2015) [9CD Box Set]

CD08: Spooky Tooth - The Mirror (1974)
EAC | Flac(Image) + Cue + Log & MP3 CBR 320Kbps
Universal-Island Records, 470 532-0 | ~ 265 or 93 Mb | Scans(png) -> 88 Mb
Rock / Blues Rock / Progressive Rock / Psychedelic Rock

After the departure of co-lead vocalist Mike Harrison, it seemed that the already-declining Spooky Tooth had suffered a creative deathblow. Fortunately, replacement Mike Patto brought new life to the aging rock outfit on The Mirror. The accomplishments of this, the group's final offering, pales in comparison to their masterpiece, Spooky Two, but there are still some fine moments. A careful examination of the credits might explain the cool musicality of the 1974 Island release. Guitarist Mick Jones (of Foreigner fame) is listed along with vocalist/keyboardist Gary Wright as co-producer. Jones' ascension within the band proves to be a blessing. The Wright-penned power ballads ("Kyle," "The Mirror") and Jones/Patto rockers ("Fantasy Satisfier," "The Hoofer") benefit from substantial production and songwriting skills. Elements of pop and gospel/R&B are all combined into a seamless rock delivery on The Mirror, giving the record a depth that is rare in the Spooky Tooth catalog.

by Jason Anderson, AMG

Tracklist:

01 Fantasy Satisfier
02 Two Time Love
03 Kyle
04 Woman And Gold
05 Higher Circles
06 Hell Or High Water
07 I’m Alive
08 The Mirror
09 The Hoofer

Exact Audio Copy V1.0 beta 6 from 9. April 2015

EAC extraction logfile from 3. May 2015, 11:11

Spooky Tooth / The Mirror

Used drive : PLEXTOR BD-R PX-B950SA Adapter: 1 ID: 1

Read mode : Secure
Utilize accurate stream : Yes
Defeat audio cache : Yes
Make use of C2 pointers : No

Read offset correction : 6
Overread into Lead-In and Lead-Out : No
Fill up missing offset samples with silence : Yes
Delete leading and trailing silent blocks : No
Null samples used in CRC calculations : Yes
Used interface : Native Win32 interface for Win NT & 2000

Used output format : Internal WAV Routines
Sample format : 44.100 Hz; 16 Bit; Stereo


TOC of the extracted CD

Track | Start | Length | Start sector | End sector
––––––––––––––––––––––––––––-
1 | 0:00.00 | 4:39.04 | 0 | 20928
2 | 4:39.04 | 3:30.12 | 20929 | 36690
3 | 8:09.16 | 3:47.40 | 36691 | 53755
4 | 11:56.56 | 3:41.45 | 53756 | 70375
5 | 15:38.26 | 5:22.29 | 70376 | 94554
6 | 21:00.55 | 5:09.66 | 94555 | 117795
7 | 26:10.46 | 4:15.10 | 117796 | 136930
8 | 30:25.56 | 5:24.09 | 136931 | 161239
9 | 35:49.65 | 3:54.61 | 161240 | 178850


Range status and errors

Selected range

Filename C:\Users\Meijin\Desktop\ALLexxess\Spooky Tooth\2015 Island Years 1967-1974 (9CD Box Set Universal Island)\1974 The Mirror\Spooky Tooth - The Mirror.wav

Peak level 98.8 %
Extraction speed 7.9 X
Range quality 100.0 %
Test CRC 00A7D385
Copy CRC 00A7D385
Copy OK

No errors occurred


AccurateRip summary

Track 1 not present in database
Track 2 not present in database
Track 3 not present in database
Track 4 not present in database
Track 5 not present in database
Track 6 not present in database
Track 7 not present in database
Track 8 not present in database
Track 9 not present in database

None of the tracks are present in the AccurateRip database

End of status report

–– CUETools DB Plugin V2.1.6

[CTDB TOCID: D2vYpHKvOAHmZqVhNbp9zM1IT.g-] disk not present in database
Submit result: D2vYpHKvOAHmZqVhNbp9zM1IT.g- has been uploaded


==== Log checksum 30B201076F0FB15805E368E92CFC069C73D005035C16B1F814F1EE84359EEE80 ====

foobar2000 1.2.9 / Dynamic Range Meter 1.1.1
log date: 2015-05-08 15:45:36

––––––––––––––––––––––––––––––––––––––––
Analyzed: Spooky Tooth / The Mirror
––––––––––––––––––––––––––––––––––––––––

DR Peak RMS Duration Track
––––––––––––––––––––––––––––––––––––––––
DR9 -0.10 dB -10.20 dB 4:39 01-Fantasy Satisfier
DR9 -0.10 dB -11.14 dB 3:30 02-Two Time Love
DR10 -0.10 dB -13.96 dB 3:48 03-Kyle
DR10 -0.10 dB -11.59 dB 3:42 04-Woman And Gold
DR11 -0.10 dB -13.45 dB 5:22 05-Higher Circles
DR10 -0.10 dB -12.07 dB 5:10 06-Hell Or High Water
DR11 -0.10 dB -12.83 dB 4:15 07-I'm Alive
DR11 -0.10 dB -14.14 dB 5:24 08-The Mirror
DR11 -0.10 dB -13.10 dB 3:55 09-The Hoofer
––––––––––––––––––––––––––––––––––––––––

Number of tracks: 9
Official DR value: DR10

Samplerate: 44100 Hz
Channels: 2
Bits per sample: 16
Bitrate: 903 kbps
Codec: FLAC

[CUETools log; Date: 08.05.2015 15:45:39; Version: 2.1.4]
[CTDB TOCID: D2vYpHKvOAHmZqVhNbp9zM1IT.g-] found.
Track | CTDB Status
1 | (2/2) Accurately ripped
2 | (2/2) Accurately ripped
3 | (2/2) Accurately ripped
4 | (2/2) Accurately ripped
5 | (2/2) Accurately ripped
6 | (2/2) Accurately ripped
7 | (2/2) Accurately ripped
8 | (2/2) Accurately ripped
9 | (2/2) Accurately ripped
[AccurateRip ID: 000d4ad5-00625b20-6d095009] disk not present in database.

Track Peak [ CRC32 ] [W/O NULL] [ LOG ]
– 98,8 [00A7D385] [45D1FAB8] CRC32
01 98,8 [47889F5D] [D25E8CB5]
02 98,8 [B1F8CFA8] [DDECA0C2]
03 98,8 [56978290] [9A0D47B7]
04 98,8 [0DCCB60E] [6E8C930C]
05 98,8 [78E77F9E] [BC1CDB71]
06 98,8 [BD3B273B] [87072AB8]
07 98,8 [509AE237] [BC1F21B4]
08 98,8 [54E83AA8] [34DDAEAC]
09 98,8 [0692242D] [56BBF083]

* * * * * * *

Spooky Tooth - The Island Years: An Anthology 1967-1974 (2015) [9CD Box Set]

CD09: Spooky Tooth - Live In Oldenburg (1973)
EAC | Flac(Image) + Cue + Log & MP3 CBR 320Kbps
Universal-Island Records, 470 532-1 | ~ 319 or 129 Mb | Scans(png) -> 104 Mb
Rock / Blues Rock / Progressive Rock / Psychedelic Rock

Tracklist:

01 Waiting For The Wind
02 I Am The Walrus
03 The Wrong Time
04 Cotton Growing Man
05 Old As I Was Born
06 Better By You, Better Than Me
07 Tobacco Road
08 Evil Woman
09 Sunshine Help Me

Exact Audio Copy V1.0 beta 6 from 9. April 2015

EAC extraction logfile from 3. May 2015, 10:30

Spooky Tooth / Live In Oldenburg

Used drive : PLEXTOR BD-R PX-B950SA Adapter: 1 ID: 1

Read mode : Secure
Utilize accurate stream : Yes
Defeat audio cache : Yes
Make use of C2 pointers : No

Read offset correction : 6
Overread into Lead-In and Lead-Out : No
Fill up missing offset samples with silence : Yes
Delete leading and trailing silent blocks : No
Null samples used in CRC calculations : Yes
Used interface : Native Win32 interface for Win NT & 2000

Used output format : Internal WAV Routines
Sample format : 44.100 Hz; 16 Bit; Stereo


TOC of the extracted CD

Track | Start | Length | Start sector | End sector
––––––––––––––––––––––––––––-
1 | 0:00.00 | 4:12.71 | 0 | 18970
2 | 4:12.71 | 5:52.40 | 18971 | 45410
3 | 10:05.36 | 4:02.71 | 45411 | 63631
4 | 14:08.32 | 4:22.05 | 63632 | 83286
5 | 18:30.37 | 9:28.12 | 83287 | 125898
6 | 27:58.49 | 5:02.46 | 125899 | 148594
7 | 33:01.20 | 5:42.08 | 148595 | 174252
8 | 38:43.28 | 7:20.57 | 174253 | 207309
9 | 46:04.10 | 8:37.60 | 207310 | 246144


Range status and errors

Selected range

Filename C:\Users\Meijin\Desktop\ALLexxess\Spooky Tooth\2015 Island Years 1967–1974 (9CD Box Set Universal-Island Records)\1973 Live In Oldenburg\Spooky Tooth - Live In Oldenburg.wav

Peak level 98.8 %
Extraction speed 7.1 X
Range quality 100.0 %
Test CRC 7BB86838
Copy CRC 7BB86838
Copy OK

No errors occurred


AccurateRip summary

Track 1 not present in database
Track 2 not present in database
Track 3 not present in database
Track 4 not present in database
Track 5 not present in database
Track 6 not present in database
Track 7 not present in database
Track 8 not present in database
Track 9 not present in database

None of the tracks are present in the AccurateRip database

End of status report

–– CUETools DB Plugin V2.1.6

[CTDB TOCID: XEKOn6Cr.h_29rFeZAsWKpwCP.s-] disk not present in database
Submit result: XEKOn6Cr.h_29rFeZAsWKpwCP.s- has been uploaded


==== Log checksum 13B59A532A7AE336C058B696FD113EBFC80BA32E220C1B3C83B97FE563032811 ====

foobar2000 1.2.9 / Dynamic Range Meter 1.1.1
log date: 2015-05-08 15:45:55

––––––––––––––––––––––––––––––––––––––––
Analyzed: Spooky Tooth / Live In Oldenburg
––––––––––––––––––––––––––––––––––––––––

DR Peak RMS Duration Track
––––––––––––––––––––––––––––––––––––––––
DR10 -0.10 dB -12.04 dB 4:13 01-Waitin' For The Wind
DR11 -0.10 dB -12.86 dB 5:53 02-I Am The Walrus
DR11 -0.10 dB -12.71 dB 4:03 03-The Wrong Time
DR11 -0.10 dB -12.40 dB 4:22 04-Cotton Growing Man
DR11 -0.10 dB -13.33 dB 9:28 05-Old As I Was Born
DR10 -0.10 dB -12.07 dB 5:03 06-Better By You, Better Than Me
DR10 -0.10 dB -13.62 dB 5:42 07-Tobacco Road
DR11 -0.10 dB -12.98 dB 7:21 08-Evil Woman
DR11 -0.10 dB -14.56 dB 8:38 09-Sunshine Help Me
––––––––––––––––––––––––––––––––––––––––

Number of tracks: 9
Official DR value: DR11

Samplerate: 44100 Hz
Channels: 2
Bits per sample: 16
Bitrate: 791 kbps
Codec: FLAC

[CUETools log; Date: 08.05.2015 15:45:57; Version: 2.1.4]
[CTDB TOCID: XEKOn6Cr.h_29rFeZAsWKpwCP.s-] found.
Track | CTDB Status
1 | (2/2) Accurately ripped
2 | (2/2) Accurately ripped
3 | (2/2) Accurately ripped
4 | (2/2) Accurately ripped
5 | (2/2) Accurately ripped
6 | (2/2) Accurately ripped
7 | (2/2) Accurately ripped
8 | (2/2) Accurately ripped
9 | (2/2) Accurately ripped
[AccurateRip ID: 0010fd9f-007f97ea-710cd109] disk not present in database.

Track Peak [ CRC32 ] [W/O NULL] [ LOG ]
– 98,8 [7BB86838] [98824FC4] CRC32
01 98,8 [DECCA11B] [5FB1804A]
02 98,8 [50200FF5] [84279CDC]
03 98,8 [8BA08978] [36A6E8F1]
04 98,8 [A40E86D7] [1ACBB2CC]
05 98,8 [D65B8DD1] [066FE03C]
06 98,8 [D66CA3CB] [421F1157]
07 98,8 [59A0B36A] [41CFF7A1]
08 98,8 [39C3FEC4] [34B19226]
09 98,8 [FB9F3FDC] [C92A7131]

Spooky Tooth - The Island Years: An Anthology 1967-1974 (2015) [9CD Box Set]

All thanks go to ALLexxess

More Spooky Tooth in my Blog

Download Spooky Tooth - The Island Years: An Anthology 1967-1974 (2015):