Tags
Language
Tags
July 2024
Su Mo Tu We Th Fr Sa
30 1 2 3 4 5 6
7 8 9 10 11 12 13
14 15 16 17 18 19 20
21 22 23 24 25 26 27
28 29 30 31 1 2 3

Stars On 45 - 40 Years Anthology (Remastered) (2022)

Posted By: Rtax
Stars On 45 - 40 Years Anthology (Remastered) (2022)

Stars On 45 - 40 Years Anthology (Remastered) (2022)
EAC Rip | FLAC (tracks, cue, log) - 970 MB | MP3 CBR 320 kbps - 366 MB
2:26:18 | Pop, Disco | Label: Red Bullet

Stars On 45 was one of the biggest smash hit projects of the 80s, featuring hit medleys of some the worlds’ greatest artists and bands, such as The Beatles, The Rolling Stones, ABBA and Stevie Wonder.
The first Stars On 45 single sold more than 5 million copies worldwide and topped the charts in many countries in early 1981: The Netherlands, Germany, Switzerland and Austria, #2 in the United Kingdom and ultimately topped the US Billboard Hot 100 on 20th June 1981.

The project originated in the Summer of 1980, when record label manager Willem van Kooten heard about a Canadian 12”-single, which featured a collection of hits from the 60s and 70s. Among them was Shocking Blue’s Venus – with the rights owned by Van Kooten - and it being an illegally bootleg record, Van Kooten did not know anything about this use. He contacted record producer and former Golden Earrings-drummer Jaap Eggermont to ask if he was able to copy that counterfeited record – with all rights cleared.

Together with arranger Martin Duiser, Eggermont immediately contacted some of the best Dutch session players, such as guitarist Hans Hollestelle, bassist Fred Jansen and singers Hans Vermeulen, Okkie Huijsdens, Arnie Treffers, Tony Sherman, Albert West, Peter Vermeij, Bas Muijs, Cees Bergman and Jody Pijper.

The recordings resulted in two singles and two albums as Stars On 45, followed by The Superstars, which yielded both a single and album in 1982. One year later, Stars on 45 topped the Dutch charts once more with Stars On 45 Proudly Presents The Star Sisters.

This 40 Years Anthology 2CD collects the major works of Stars On 45, plus five tracks from the 1982 follow-up project The Superstars and three hit singles from The Star Sisters. Most tracks have never been released on CD before.

The release of this 2CD marks the first time that all Stars On 45 material has been transferred and remastered from the original Soundpush Studio master tapes, overseen by Red Bullet catalogue and band archivist Wouter Bessels.

Tracklist
CD1
1. Long Play Album - Beatles Medley (15:57)
2. Long Play Album - Part 2 (8:08)
3. Long Play Album II - Star Wars Medley (5:12)
4. Long Play Album II - Sixties Medley (6:11)
5. Long Play Album II - Supremes Medley (6:23)
6. Long Play Album II - ABBA Medley (8:35)
7. Long Play Album II - 45 Stars Get Ready (7:13)
8. Stars On 45 Proudly Presents The Star Sisters - 7-inch version (4:01)
9. Hooray For Hollywood - 7-inch version (3:11)
10. Bad Girls - 12-inch version (7:59)

CD2
1. The Superstars (The Greatest Rock 'n Roll Band In The World) (16:02)
2. Stars On Stevie (7:44)
3. It's Not A Wonder, It's A Miracle (6:56)
4. Stars On Jingle (0:11)
5. Don't Give Up (5:36)
6. Stars On 45 - 7 inch version (4:51)
7. More Stars - 7 inch version (4:46)
8. Stars On 45 theme - 7 inch version (3:30)
9. Stars On 45 - 12 inch version (11:36)
10. More Stars - 12 inch version (11:56)
Exact Audio Copy V1.6 from 23. October 2020

EAC extraction logfile from 1. October 2022, 13:37

Stars On 45 / 40 Years Anthology

Used drive : ASUS BW-16D1HT Adapter: 1 ID: 0

Read mode : Secure
Utilize accurate stream : Yes
Defeat audio cache : Yes
Make use of C2 pointers : No

Read offset correction : 6
Overread into Lead-In and Lead-Out : No
Fill up missing offset samples with silence : Yes
Delete leading and trailing silent blocks : No
Null samples used in CRC calculations : Yes
Used interface : Native Win32 interface for Win NT & 2000
Gap handling : Appended to previous track

Used output format : User Defined Encoder
Selected bitrate : 1024 kBit/s
Quality : High
Add ID3 tag : No
Command line compressor : C:\Program Files (x86)\Exact Audio Copy\Flac\flac.exe
Additional command line options : -8 -V -T "ARTIST=%artist%" -T "TITLE=%title%" -T "ALBUM=%albumtitle%" -T "DATE=%year%" -T "TRACKNUMBER=%tracknr%" -T "GENRE=%genre%" -T "PERFORMER=%albuminterpret%" -T "COMPOSER=%composer%" %haslyrics%–tag-from-file=LYRICS="%lyricsfile%"%haslyrics% -T "ALBUMARTIST=%albumartist%" -T "DISCNUMBER=%cdnumber%" -T "TOTALDISCS=%totalcds%" -T "TOTALTRACKS=%numtracks%" -T "COMMENT=%comment%" %source% -o %dest%


TOC of the extracted CD

Track | Start | Length | Start sector | End sector
––––––––––––––––––––––––––––-
1 | 0:00.00 | 15:57.17 | 0 | 71791
2 | 15:57.17 | 8:09.68 | 71792 | 108534
3 | 24:07.10 | 5:12.30 | 108535 | 131964
4 | 29:19.40 | 6:11.19 | 131965 | 159808
5 | 35:30.59 | 6:22.70 | 159809 | 188528
6 | 41:53.54 | 8:35.37 | 188529 | 227190
7 | 50:29.16 | 7:14.41 | 227191 | 259781
8 | 57:43.57 | 4:03.12 | 259782 | 278018
9 | 61:46.69 | 3:12.64 | 278019 | 292482
10 | 64:59.58 | 7:59.49 | 292483 | 328456


Track 1

Filename C:\#cdr\#Wav+Flac\#Add\Stars On 45 - 40 Years Anthology\cd 1\01 - Stars On 45 - Beatles Medley.wav

Pre-gap length 0:00:02.00

Peak level 94.4 %
Extraction speed 1.5 X
Track quality 100.0 %
Test CRC 831EAC96
Copy CRC 831EAC96
Track not present in AccurateRip database
Copy OK

Track 2

Filename C:\#cdr\#Wav+Flac\#Add\Stars On 45 - 40 Years Anthology\cd 1\02 - Stars On 45 - Part 2.wav

Peak level 94.4 %
Extraction speed 1.8 X
Track quality 100.0 %
Test CRC 9C962331
Copy CRC 9C962331
Track not present in AccurateRip database
Copy OK

Track 3

Filename C:\#cdr\#Wav+Flac\#Add\Stars On 45 - 40 Years Anthology\cd 1\03 - Stars On 45 - Star Wars Medley.wav

Pre-gap length 0:00:02.00

Peak level 92.7 %
Extraction speed 1.7 X
Track quality 99.9 %
Test CRC 9422CB1C
Copy CRC 9422CB1C
Track not present in AccurateRip database
Copy OK

Track 4

Filename C:\#cdr\#Wav+Flac\#Add\Stars On 45 - 40 Years Anthology\cd 1\04 - Stars On 45 - Sixties Medley.wav

Peak level 92.5 %
Extraction speed 2.0 X
Track quality 100.0 %
Test CRC 54455735
Copy CRC 54455735
Track not present in AccurateRip database
Copy OK

Track 5

Filename C:\#cdr\#Wav+Flac\#Add\Stars On 45 - 40 Years Anthology\cd 1\05 - Stars On 45 - Supremes Medley.wav

Peak level 92.1 %
Extraction speed 2.1 X
Track quality 100.0 %
Test CRC E2FE701D
Copy CRC E2FE701D
Track not present in AccurateRip database
Copy OK

Track 6

Filename C:\#cdr\#Wav+Flac\#Add\Stars On 45 - 40 Years Anthology\cd 1\06 - Stars On 45 - ABBA Medley.wav

Peak level 90.9 %
Extraction speed 2.3 X
Track quality 100.0 %
Test CRC FACC281D
Copy CRC FACC281D
Track not present in AccurateRip database
Copy OK

Track 7

Filename C:\#cdr\#Wav+Flac\#Add\Stars On 45 - 40 Years Anthology\cd 1\07 - Stars On 45 - 45 Stars Get Ready.wav

Peak level 86.6 %
Extraction speed 2.2 X
Track quality 99.9 %
Test CRC D8678757
Copy CRC D8678757
Track not present in AccurateRip database
Copy OK

Track 8

Filename C:\#cdr\#Wav+Flac\#Add\Stars On 45 - 40 Years Anthology\cd 1\08 - Stars On 45 - Stars On 45 Proudly Presents The Star Sisters (7'' Version).wav

Pre-gap length 0:00:02.00

Peak level 90.4 %
Extraction speed 2.4 X
Track quality 100.0 %
Test CRC D685EBBA
Copy CRC D685EBBA
Track not present in AccurateRip database
Copy OK

Track 9

Filename C:\#cdr\#Wav+Flac\#Add\Stars On 45 - 40 Years Anthology\cd 1\09 - Stars On 45 - Hooray For Hollywood (7'' Version).wav

Pre-gap length 0:00:02.00

Peak level 94.4 %
Extraction speed 2.3 X
Track quality 100.0 %
Test CRC 27359CEE
Copy CRC 27359CEE
Track not present in AccurateRip database
Copy OK

Track 10

Filename C:\#cdr\#Wav+Flac\#Add\Stars On 45 - 40 Years Anthology\cd 1\10 - Stars On 45 - Bad Girls (12'' Version).wav

Pre-gap length 0:00:02.00

Peak level 94.4 %
Extraction speed 2.7 X
Track quality 100.0 %
Test CRC 50C2A5AC
Copy CRC 50C2A5AC
Track not present in AccurateRip database
Copy OK


None of the tracks are present in the AccurateRip database

No errors occurred

End of status report

–– CUETools DB Plugin V2.1.6

[CTDB TOCID: zx3mIJXygWvn3yna8S2FyeGtuXA-] found
Submit result: zx3mIJXygWvn3yna8S2FyeGtuXA- has been confirmed
Track | CTDB Status
1 | (1/1) Accurately ripped
2 | (1/1) Accurately ripped
3 | (1/1) Accurately ripped
4 | (1/1) Accurately ripped
5 | (1/1) Accurately ripped
6 | (1/1) Accurately ripped
7 | (1/1) Accurately ripped
8 | (1/1) Accurately ripped
9 | (1/1) Accurately ripped
10 | (1/1) Accurately ripped


==== Log checksum CE6FB61A8570DF9C5E3211E399FDBE6C67141814B8FC703F77F7A47B02210805 ====

––––––––––––––––––––––––––––––

Exact Audio Copy V1.6 from 23. October 2020

EAC extraction logfile from 1. October 2022, 13:37

Stars On 45 / 40 Years Anthology

Used drive : ASUS BW-16D1HT Adapter: 1 ID: 0

Read mode : Secure
Utilize accurate stream : Yes
Defeat audio cache : Yes
Make use of C2 pointers : No

Read offset correction : 6
Overread into Lead-In and Lead-Out : No
Fill up missing offset samples with silence : Yes
Delete leading and trailing silent blocks : No
Null samples used in CRC calculations : Yes
Used interface : Native Win32 interface for Win NT & 2000
Gap handling : Appended to previous track

Used output format : User Defined Encoder
Selected bitrate : 1024 kBit/s
Quality : High
Add ID3 tag : No
Command line compressor : C:\Program Files (x86)\Exact Audio Copy\Flac\flac.exe
Additional command line options : -8 -V -T "ARTIST=%artist%" -T "TITLE=%title%" -T "ALBUM=%albumtitle%" -T "DATE=%year%" -T "TRACKNUMBER=%tracknr%" -T "GENRE=%genre%" -T "PERFORMER=%albuminterpret%" -T "COMPOSER=%composer%" %haslyrics%–tag-from-file=LYRICS="%lyricsfile%"%haslyrics% -T "ALBUMARTIST=%albumartist%" -T "DISCNUMBER=%cdnumber%" -T "TOTALDISCS=%totalcds%" -T "TOTALTRACKS=%numtracks%" -T "COMMENT=%comment%" %source% -o %dest%


TOC of the extracted CD

Track | Start | Length | Start sector | End sector
––––––––––––––––––––––––––––-
1 | 0:00.00 | 15:57.17 | 0 | 71791
2 | 15:57.17 | 8:09.68 | 71792 | 108534
3 | 24:07.10 | 5:12.30 | 108535 | 131964
4 | 29:19.40 | 6:11.19 | 131965 | 159808
5 | 35:30.59 | 6:22.70 | 159809 | 188528
6 | 41:53.54 | 8:35.37 | 188529 | 227190
7 | 50:29.16 | 7:14.41 | 227191 | 259781
8 | 57:43.57 | 4:03.12 | 259782 | 278018
9 | 61:46.69 | 3:12.64 | 278019 | 292482
10 | 64:59.58 | 7:59.49 | 292483 | 328456


Track 1

Filename C:\#cdr\#Wav+Flac\#Add\Stars On 45 - 40 Years Anthology\cd 1\01 - Stars On 45 - Beatles Medley.wav

Pre-gap length 0:00:02.00

Peak level 94.4 %
Extraction speed 1.5 X
Track quality 100.0 %
Test CRC 831EAC96
Copy CRC 831EAC96
Track not present in AccurateRip database
Copy OK

Track 2

Filename C:\#cdr\#Wav+Flac\#Add\Stars On 45 - 40 Years Anthology\cd 1\02 - Stars On 45 - Part 2.wav

Peak level 94.4 %
Extraction speed 1.8 X
Track quality 100.0 %
Test CRC 9C962331
Copy CRC 9C962331
Track not present in AccurateRip database
Copy OK

Track 3

Filename C:\#cdr\#Wav+Flac\#Add\Stars On 45 - 40 Years Anthology\cd 1\03 - Stars On 45 - Star Wars Medley.wav

Pre-gap length 0:00:02.00

Peak level 92.7 %
Extraction speed 1.7 X
Track quality 99.9 %
Test CRC 9422CB1C
Copy CRC 9422CB1C
Track not present in AccurateRip database
Copy OK

Track 4

Filename C:\#cdr\#Wav+Flac\#Add\Stars On 45 - 40 Years Anthology\cd 1\04 - Stars On 45 - Sixties Medley.wav

Peak level 92.5 %
Extraction speed 2.0 X
Track quality 100.0 %
Test CRC 54455735
Copy CRC 54455735
Track not present in AccurateRip database
Copy OK

Track 5

Filename C:\#cdr\#Wav+Flac\#Add\Stars On 45 - 40 Years Anthology\cd 1\05 - Stars On 45 - Supremes Medley.wav

Peak level 92.1 %
Extraction speed 2.1 X
Track quality 100.0 %
Test CRC E2FE701D
Copy CRC E2FE701D
Track not present in AccurateRip database
Copy OK

Track 6

Filename C:\#cdr\#Wav+Flac\#Add\Stars On 45 - 40 Years Anthology\cd 1\06 - Stars On 45 - ABBA Medley.wav

Peak level 90.9 %
Extraction speed 2.3 X
Track quality 100.0 %
Test CRC FACC281D
Copy CRC FACC281D
Track not present in AccurateRip database
Copy OK

Track 7

Filename C:\#cdr\#Wav+Flac\#Add\Stars On 45 - 40 Years Anthology\cd 1\07 - Stars On 45 - 45 Stars Get Ready.wav

Peak level 86.6 %
Extraction speed 2.2 X
Track quality 99.9 %
Test CRC D8678757
Copy CRC D8678757
Track not present in AccurateRip database
Copy OK

Track 8

Filename C:\#cdr\#Wav+Flac\#Add\Stars On 45 - 40 Years Anthology\cd 1\08 - Stars On 45 - Stars On 45 Proudly Presents The Star Sisters (7'' Version).wav

Pre-gap length 0:00:02.00

Peak level 90.4 %
Extraction speed 2.4 X
Track quality 100.0 %
Test CRC D685EBBA
Copy CRC D685EBBA
Track not present in AccurateRip database
Copy OK

Track 9

Filename C:\#cdr\#Wav+Flac\#Add\Stars On 45 - 40 Years Anthology\cd 1\09 - Stars On 45 - Hooray For Hollywood (7'' Version).wav

Pre-gap length 0:00:02.00

Peak level 94.4 %
Extraction speed 2.3 X
Track quality 100.0 %
Test CRC 27359CEE
Copy CRC 27359CEE
Track not present in AccurateRip database
Copy OK

Track 10

Filename C:\#cdr\#Wav+Flac\#Add\Stars On 45 - 40 Years Anthology\cd 1\10 - Stars On 45 - Bad Girls (12'' Version).wav

Pre-gap length 0:00:02.00

Peak level 94.4 %
Extraction speed 2.7 X
Track quality 100.0 %
Test CRC 50C2A5AC
Copy CRC 50C2A5AC
Track not present in AccurateRip database
Copy OK


None of the tracks are present in the AccurateRip database

No errors occurred

End of status report

–– CUETools DB Plugin V2.1.6

[CTDB TOCID: zx3mIJXygWvn3yna8S2FyeGtuXA-] found
Submit result: zx3mIJXygWvn3yna8S2FyeGtuXA- has been confirmed
Track | CTDB Status
1 | (1/1) Accurately ripped
2 | (1/1) Accurately ripped
3 | (1/1) Accurately ripped
4 | (1/1) Accurately ripped
5 | (1/1) Accurately ripped
6 | (1/1) Accurately ripped
7 | (1/1) Accurately ripped
8 | (1/1) Accurately ripped
9 | (1/1) Accurately ripped
10 | (1/1) Accurately ripped


==== Log checksum CE6FB61A8570DF9C5E3211E399FDBE6C67141814B8FC703F77F7A47B02210805 ====