Tags
Language
Tags

Stephen Hough - Liszt: Années de pèlerinage, Suisse (2005)

Posted By: tirexiss
Stephen Hough - Liszt: Années de pèlerinage, Suisse (2005)

Stephen Hough - Liszt: Années de pèlerinage, Suisse (2005)
EAC | FLAC (image+.cue, log) | Covers Included | 01:15:14 | 215 MB
Genre: Classical | Label: Hyperion | Catalog: CDA67424

Stephen Hough has the ample virtuoso credentials to excel in these demanding exemplars of Romantic piano music. Only rarely do we miss the rhetorical flourishes or the big, burnished tone and philosophical depth of an Arrau, but this is a first-rate reading of wonderful piano music. Hough's performance of "Vallé d'Obermann," the longest by far of the Swiss book of the Années, is played like the large-scale tone poem it is, and he fully conveys the work's meditation on nature's mysteries. His tempo freedoms in "Au bord d'une source" help make this astounding "water music" a miracle of color and mood. Throughout, Hough's fleet fingers dazzle in the difficult passages and his tonal subtleties reflect the poetry in these nine pieces. The operatic paraphrases may be less ambitious music, but it's hard to resist the toe-tapping bounce he gives the waltz from Gounod's Faust or the gentle beauties of the Roméo et Juliette Réverie and the Berceuse from the now all-but-forgotten La Reine de Saba. In all, a well-recorded, well-filled disc of superb pianism. –Dan Davis

Stephen Hough - Liszt: Années de pèlerinage, Suisse (2005)

Track List:

Années de pèlerinage
Première Année –Suisse S160 (1855) [51'45]
1. Chapelle de Guillaume Tell [6'43]
2. Au lac de Wallenstadt [3'07]
3. Pastorale [1'30]
4. Au bord d’une source [3'56]
5. Orage [4'50]
6. Vallée d’Obermann [15'53]
7. Eglogue [2'50]
8. Le mal du pays [6'36]
9. Les cloches de Genève – Nocturne [6'14]
The complete opera paraphrases after Charles Gounod (1818–1893)
10. Les Adieux – Rêverie sur un motif de Roméo et Juliette S409 (1867) [8'30]
11. Valse de l’opéra Faust S407 (1861) [10'14]
12. Les Sabéennes – Berceuse de l’opéra La Reine de Saba S408 (1865) [4'40]

Performers:
Stephen Hough (piano)

Exact Audio Copy V1.3 from 2. September 2016

EAC extraction logfile from 18. July 2019, 13:59

Stephen Hough / Liszt- Années de pèlerinage - Suisse

Used drive : HL-DT-STDVDRAM GP65NW60 Adapter: 1 ID: 0

Read mode : Secure
Utilize accurate stream : Yes
Defeat audio cache : Yes
Make use of C2 pointers : No

Read offset correction : 6
Overread into Lead-In and Lead-Out : No
Fill up missing offset samples with silence : Yes
Delete leading and trailing silent blocks : No
Null samples used in CRC calculations : Yes
Used interface : Native Win32 interface for Win NT & 2000

Used output format : User Defined Encoder
Selected bitrate : 1024 kBit/s
Quality : High
Add ID3 tag : No
Command line compressor : C:\Program Files (x86)\Exact Audio Copy\FLAC\FLAC.EXE
Additional command line options : -6 -V -T "ARTIST=%artist%" -T "TITLE=%title%" -T "ALBUM=%albumtitle%" -T "DATE=%year%" -T "TRACKNUMBER=%tracknr%" -T "GENRE=%genre%" -T "COMMENT=%comment%" -T "BAND=%albuminterpret%" -T "ALBUMARTIST=%albuminterpret%" -T "COMPOSER=%composer%" %haslyrics%–tag-from-file=LYRICS="%lyricsfile%"%haslyrics% -T "DISCNUMBER=%cdnumber%" -T "TOTALDISCS=%totalcds%" -T "TOTALTRACKS=%numtracks%" %hascover%–picture="%coverfile%"%hascover% %source% -o %dest%


TOC of the extracted CD

Track | Start | Length | Start sector | End sector
––––––––––––––––––––––––––––-
1 | 0:00.00 | 6:43.35 | 0 | 30259
2 | 6:43.35 | 3:07.21 | 30260 | 44305
3 | 9:50.56 | 1:30.35 | 44306 | 51090
4 | 11:21.16 | 3:56.50 | 51091 | 68840
5 | 15:17.66 | 4:50.74 | 68841 | 90664
6 | 20:08.65 | 15:53.03 | 90665 | 162142
7 | 36:01.68 | 2:50.25 | 162143 | 174917
8 | 38:52.18 | 6:36.73 | 174918 | 204690
9 | 45:29.16 | 6:21.03 | 204691 | 233268
10 | 51:50.19 | 8:33.09 | 233269 | 271752
11 | 60:23.28 | 10:15.35 | 271753 | 317912
12 | 70:38.63 | 4:40.08 | 317913 | 338920


Range status and errors

Selected range

Filename C:\Users\Grant\Desktop\Stephen Hough - Liszt- Années de pèlerinage - Suisse.wav

Peak level 98.8 %
Extraction speed 5.0 X
Range quality 100.0 %
Test CRC 46A1AF01
Copy CRC 46A1AF01
Copy OK

No errors occurred


AccurateRip summary

Track 1 accurately ripped (confidence 8) [D2181843] (AR v2)
Track 2 accurately ripped (confidence 8) [15426D23] (AR v2)
Track 3 accurately ripped (confidence 8) [1738EC31] (AR v2)
Track 4 accurately ripped (confidence 8) [A0AC6C6C] (AR v2)
Track 5 accurately ripped (confidence 8) [9609A7C4] (AR v2)
Track 6 accurately ripped (confidence 7) [176706D9] (AR v2)
Track 7 accurately ripped (confidence 8) [7B63ADEF] (AR v2)
Track 8 accurately ripped (confidence 8) [7AA077B5] (AR v2)
Track 9 accurately ripped (confidence 8) [E59A8801] (AR v2)
Track 10 accurately ripped (confidence 8) [A08A23D0] (AR v2)
Track 11 accurately ripped (confidence 8) [B9F0821E] (AR v2)
Track 12 accurately ripped (confidence 8) [5AF37CA7] (AR v2)

All tracks accurately ripped

End of status report

–– CUETools DB Plugin V2.1.6

[CTDB TOCID: Gi3a5u8_BeQ5ZD.WwBBzPLmIr94-] found
Submit result: Gi3a5u8_BeQ5ZD.WwBBzPLmIr94- has been confirmed
Track | CTDB Status
1 | (14/14) Accurately ripped
2 | (14/14) Accurately ripped
3 | (14/14) Accurately ripped
4 | (14/14) Accurately ripped
5 | (14/14) Accurately ripped
6 | (14/14) Accurately ripped
7 | (14/14) Accurately ripped
8 | (14/14) Accurately ripped
9 | (14/14) Accurately ripped
10 | (14/14) Accurately ripped
11 | (14/14) Accurately ripped
12 | (14/14) Accurately ripped


==== Log checksum BBBCF51A4F5E57F4FC34C8D0EF168284258B57E52F13A97FD0B5F73445800BC3 ====

Thanks to the Original ripper (unknown)!

Welcome to my blog!

Download: