Subcategories

Steven Osborne - Modest Musorgsky: Pictures From an Exhibition; Sergei Prokofiev: Visions Fugitives, Five Sarcasms (2013)

Posted By: Designol
Steven Osborne - Modest Musorgsky: Pictures From an Exhibition; Sergei Prokofiev: Visions Fugitives, Five Sarcasms (2013)

Steven Osborne - Modest Musorgsky: Pictures From an Exhibition;
Sergei Prokofiev: Visions Fugitives, Five Sarcasms (2013)

EAC | FLAC | Image (Cue&Log) ~ 175 Mb | Mp3 (CBR320) ~ 152 Mb | Artwork included
Genre: Classical | Label: Hyperion | # CDA67896 | Time: 01:05:57

GRAMOPHONE AWARD WINNER: INSTRUMENTAL AWARD 2013 & BBC MUSIC MAGAZINE RECORDING OF THE MONTH. Steven Osborne has become one of the most valuable pianists recording today. His recent complete Rachmaninov Preludes release was critically acclaimed as the greatest modern version since Ashkenazy. Now he turns to further cornerstones of the Russian repertoire in this recording of Musorgsky’s Pictures from an Exhibition (a work which has been in Osborne’s concert repertoire for many years), and two sets of Prokofiev’s miniatures.

Musorgsky’s masterpiece is one of the most popular programmatic works of the 19th century. Yet it is also a great pianistic challenge, with the spectacular textures of the climactic movement ‘The Great Gate of Kiev’ requiring the highest technical accomplishments.

David Fanning writes of Prokofiev’s Visions fugitives: ‘Prokofiev supplies snapshots of his most characteristic moods—sometimes grotesque, sometimes incantatory and mystical, sometimes simply poetic, sometimes aggressively assertive, sometimes so delicately poised as to allow the performer and the listener to make up their own minds.’ Osborne’s subtle, yet brilliant use of colour and characterization makes him the ideal performer of this set. Sarcasms—as befits the title—is an experimental, provocative work, performed by Osborne with biting humour.

Steven Osborne's recordings for Hyperion have been fascinating for their varied content, and he seems never to settle into a predictable niche. While he has recorded music by Shostakovich and Rachmaninov, it's never been with the aim of concentrating on Russian music, though he certainly demonstrates a strong sympathy for it and could easily be a leading specialist in the field. This album of Modest Mussorgsky's Pictures at an Exhibition and Sergey Prokofiev's Five Sarcasms and Visions Fugitives once again shows his deep understanding of the Russian spirit, and he reveals not only a special feeling for its dark and brooding aspects, but also displays a brilliance that reflects the Russian love of tone colors and effective scene painting. Mussorgsky's evocations of Viktor Hartmann's paintings are most famous in the colorful orchestral version by Ravel, but the piano's own timbres are similarly exploited and shaded by Osborne, whose playing is a kind of orchestration of touch and attack. The Prokofiev pieces are less obviously picturesque, though they are suggestive of mental states and fleeting impressions that Osborne communicates through his enormous array of expressions. Sarcasms calls for edgy and aggressive playing while Visions Fugitives is more reflective and evanescent, yet Osborne has firm control of all these moods and shadings, and he makes his Prokofiev performances as compelling as the Mussorgsky. Hyperion's sound captures Osborne with great clarity and resonance, though the microphone placement isn't close enough to give him much physical presence.

Review by Blair Sanderson, Allmusic.com

After his disc of Rachmaninov’s 24 Preludes (6/09), Steven Osborne moves into rougher Russian waters with Mussorgsky and Prokofiev. And here, once more, is an ideal blend of fidelity to the score, with a subtle and distinctive rather than overbearing musical personality. In the Mussorgsky everything is as musicianly as it is technically immaculate. What tonal delicacy and translucency in ‘Tuileries’, and listen to his finesse in the tremolandos at the end of ‘Con mortuis in lingua mortua’, something barely audible and coming as it were from a great distance. Yet in the more weighty numbers (‘Bydlo’, ‘The Great Gate at Kiev’, etc), there is power without brutality so that what so easily degenerates into a mere uproar is so finely graded that you forget the essentially percussive nature of the writing.

In Prokofiev’s Sarcasms, too, there is a leavening of the composer’s violent and leering gesture against the Russian establishment but never at the expense of the title. Again, in the Visions fugitives there is the finest possible sense of ‘things flying past’ with a stunning reminder in the Feroce of No 14 of Osborne’s superb technique. Returning to the Mussorgsky (the chief offering in this recital), this may well be the most lucid and musicianly Pictures on record. Hyperion’s sound and presentation are beyond praise.

Review by Bryce Morrison, Gramophone

Steven Osborne - Modest Musorgsky: Pictures From an Exhibition; Sergei Prokofiev: Visions Fugitives, Five Sarcasms (2013)



Tracklist:

Modest Musorgsky (1839-1881)

Pictures From an Exhibition
01. Promenade 1 (1:17)
02. No 1: Gnomus (2:48)
03. Promenade 2 (0:51)
04. No 2: The Old Castle (4:37)
05. Promenade 3 (0:25)
06. No 3: Tuileries (0:58)
07. No 4: Bydlo (3:50)
08. Promenade 4 (0:50)
09. No 5: Ballet of the Unhatched Chicks (1:10)
10. No 6: Two Polish Jews, One Rich, the other poor (Samuel Goldenberg and Schmuyle) (2:21)
11. Promenade 5 (1:15)
12. No 7: Limoges, the Market Place (1:22)
13. No 8a: Catacombae (2:45)
14. No 8b: Con mortuis in lingua mortua (2:12)
15. No 9: Baba Yaga (3:19)
16. No 10: The Great Gate of Kiev (5:47)


Sergei Prokofiev (1891-1953)

Sarcasms, Op.17
17. 1. Tempestoso (1:56)
18. 2. Allegro rubato (1:10)
19. 3. Allegro precipitato (1:43)
20. 4. Smanioso (2:09)
21. 5. Precipitosissimo (3:37)

Visions Fugitives, Op.22
22. 01. Lentamente (1:01)
23. 02. Andante (1:10)
24. 03. Allegretto (0:47)
25. 04. Animato (0:58)
26. 05. Molto giocoso (0:23)
27. 06. Con eleganza (0:24)
28. 07. Pittoresco (1:47)
29. 08. Comodo (0:57)
30. 09. Allegretto tranquillo (1:04)
31. 10. Ridicolosamente (0:48)
32. 11. Con vivacitа (1:08)
33. 12. Assai moderato (0:54)
34. 13. Allegretto (0:29)
35. 14. Feroce (0:55)
36. 15. Inquieto (0:51)
37. 16. Dolente (1:23)
38. 17. Poetico (0:58)
39. 18. Con una dolce lentezza (1:08)
40. 19. Presto agitatissimo & molto accentuato (0:43)
41. 20. Lento (1:48)


Exact Audio Copy V1.0 beta 3 from 29. August 2011

EAC extraction logfile from 1. June 2013, 20:26

Steven Osborne / Musorgsky - Pictures From an Exhibition; Prokofiev - Sarcasms & Visions Fugitives

Used drive : HL-DT-STDVDRAM GSA-4083N Adapter: 1 ID: 0

Read mode : Secure
Utilize accurate stream : Yes
Defeat audio cache : Yes
Make use of C2 pointers : No

Read offset correction : 667
Overread into Lead-In and Lead-Out : No
Fill up missing offset samples with silence : Yes
Delete leading and trailing silent blocks : No
Null samples used in CRC calculations : Yes
Used interface : Native Win32 interface for Win NT & 2000

Used output format : User Defined Encoder
Selected bitrate : 896 kBit/s
Quality : High
Add ID3 tag : No
Command line compressor : C:\Program Files\Exact Audio Copy\Flac\flac.exe
Additional command line options : -V -8 %source%


TOC of the extracted CD

Track | Start | Length | Start sector | End sector
––––––––––––––––––––––––––––-
1 | 0:00.00 | 1:16.68 | 0 | 5767
2 | 1:16.68 | 2:47.73 | 5768 | 18365
3 | 4:04.66 | 0:51.14 | 18366 | 22204
4 | 4:56.05 | 4:37.32 | 22205 | 43011
5 | 9:33.37 | 0:24.55 | 43012 | 44866
6 | 9:58.17 | 0:58.15 | 44867 | 49231
7 | 10:56.32 | 3:50.02 | 49232 | 66483
8 | 14:46.34 | 0:49.40 | 66484 | 70198
9 | 15:35.74 | 1:09.64 | 70199 | 75437
10 | 16:45.63 | 2:20.66 | 75438 | 86003
11 | 19:06.54 | 1:14.57 | 86004 | 91610
12 | 20:21.36 | 1:22.24 | 91611 | 97784
13 | 21:43.60 | 2:44.69 | 97785 | 110153
14 | 24:28.54 | 2:11.39 | 110154 | 120017
15 | 26:40.18 | 3:19.32 | 120018 | 134974
16 | 29:59.50 | 5:47.27 | 134975 | 161026
17 | 35:47.02 | 1:55.59 | 161027 | 169710
18 | 37:42.61 | 1:09.42 | 169711 | 174927
19 | 38:52.28 | 1:43.19 | 174928 | 182671
20 | 40:35.47 | 2:09.22 | 182672 | 192368
21 | 42:44.69 | 3:37.28 | 192369 | 208671
22 | 46:22.22 | 1:01.13 | 208672 | 213259
23 | 47:23.35 | 1:09.69 | 213260 | 218503
24 | 48:33.29 | 0:46.69 | 218504 | 222022
25 | 49:20.23 | 0:57.39 | 222023 | 226336
26 | 50:17.62 | 0:22.51 | 226337 | 228037
27 | 50:40.38 | 0:24.12 | 228038 | 229849
28 | 51:04.50 | 1:46.48 | 229850 | 237847
29 | 52:51.23 | 0:57.05 | 237848 | 242127
30 | 53:48.28 | 1:03.72 | 242128 | 246924
31 | 54:52.25 | 0:48.07 | 246925 | 250531
32 | 55:40.32 | 1:07.72 | 250532 | 255628
33 | 56:48.29 | 0:54.10 | 255629 | 259688
34 | 57:42.39 | 0:28.55 | 259689 | 261843
35 | 58:11.19 | 0:55.16 | 261844 | 265984
36 | 59:06.35 | 0:50.47 | 265985 | 269781
37 | 59:57.07 | 1:22.55 | 269782 | 275986
38 | 61:19.62 | 0:57.46 | 275987 | 280307
39 | 62:17.33 | 1:08.00 | 280308 | 285407
40 | 63:25.33 | 0:43.34 | 285408 | 288666
41 | 64:08.67 | 1:48.07 | 288667 | 296773


Range status and errors

Selected range

Filename J:\New Music\Musorgsky - Pictures From an Exhibition; Prokofiev - Sarcasms & Visions Fugitives\Musorgsky - Pictures From an Exhibition; Prokofiev - Sarcasms & Visions Fugitives.wav

Peak level 96.1 %
Extraction speed 3.5 X
Range quality 100.0 %
Test CRC 7EEC6331
Copy CRC 7EEC6331
Copy OK

No errors occurred

End of status report

==== Log checksum 0BF81F197E19FC60802EEAAE5BC1678821A4CDED52B0D66C7C4BC28C31B5CAD3 ====

[CUETools log; Date: 08.11.2018 17:46:24; Version: 2.1.4]
[CTDB TOCID: jGSrfgru8eL7HHx0iSDb_5Dlm38-] found.
Track | CTDB Status
1 | (27/27) Accurately ripped
2 | (27/27) Accurately ripped
3 | (27/27) Accurately ripped
4 | (27/27) Accurately ripped
5 | (27/27) Accurately ripped
6 | (27/27) Accurately ripped
7 | (27/27) Accurately ripped
8 | (27/27) Accurately ripped
9 | (27/27) Accurately ripped
10 | (27/27) Accurately ripped
11 | (27/27) Accurately ripped
12 | (27/27) Accurately ripped
13 | (27/27) Accurately ripped
14 | (27/27) Accurately ripped
15 | (27/27) Accurately ripped
16 | (27/27) Accurately ripped
17 | (27/27) Accurately ripped
18 | (27/27) Accurately ripped
19 | (27/27) Accurately ripped
20 | (27/27) Accurately ripped
21 | (27/27) Accurately ripped
22 | (27/27) Accurately ripped
23 | (27/27) Accurately ripped
24 | (27/27) Accurately ripped
25 | (27/27) Accurately ripped
26 | (27/27) Accurately ripped
27 | (27/27) Accurately ripped
28 | (27/27) Accurately ripped
29 | (27/27) Accurately ripped
30 | (27/27) Accurately ripped
31 | (27/27) Accurately ripped
32 | (27/27) Accurately ripped
33 | (27/27) Accurately ripped
34 | (27/27) Accurately ripped
35 | (27/27) Accurately ripped
36 | (27/27) Accurately ripped
37 | (27/27) Accurately ripped
38 | (27/27) Accurately ripped
39 | (27/27) Accurately ripped
40 | (27/27) Accurately ripped
41 | (27/27) Accurately ripped
[AccurateRip ID: 006d92d7-0befa251-630f7429] found.
Track [ CRC | V2 ] Status
01 [58717238|30173aef] (00+20/20) Accurately ripped
02 [3f20edd5|9e434958] (00+20/20) Accurately ripped
03 [4aa77940|b241c4b8] (00+20/20) Accurately ripped
04 [3cc3fd94|bf6c9885] (00+20/20) Accurately ripped
05 [4f7a12af|b788cf7a] (00+20/20) Accurately ripped
06 [1831b04a|41168958] (00+20/20) Accurately ripped
07 [e4de4654|f11da193] (00+20/20) Accurately ripped
08 [ad9a267d|b0bf2104] (00+20/20) Accurately ripped
09 [a2e5af21|8ce45143] (00+20/20) Accurately ripped
10 [ef4ac6d5|156efbe3] (00+20/20) Accurately ripped
11 [0a7ccda6|2fbfc7e8] (00+20/20) Accurately ripped
12 [b048127b|9139c4ef] (00+20/20) Accurately ripped
13 [84ceb523|f03d3191] (00+20/20) Accurately ripped
14 [88974752|d009b100] (00+20/20) Accurately ripped
15 [bce197e7|c45ee8f5] (00+20/20) Accurately ripped
16 [061ce59b|7b160352] (00+20/20) Accurately ripped
17 [4dd9860a|1bd6ee6a] (00+19/19) Accurately ripped
18 [075566c7|419e2840] (00+19/19) Accurately ripped
19 [8f113f71|97bb0245] (00+19/19) Accurately ripped
20 [b6603e72|fec388a1] (00+19/19) Accurately ripped
21 [0135fae4|a7013241] (00+19/19) Accurately ripped
22 [f83038e3|df0985b4] (00+19/19) Accurately ripped
23 [6ec827d4|7673d6dc] (00+19/19) Accurately ripped
24 [be6c64be|a39f24f3] (00+19/19) Accurately ripped
25 [d1cbec15|57c16867] (00+19/19) Accurately ripped
26 [93975726|85e0a21b] (00+19/19) Accurately ripped
27 [c640f775|968a900b] (00+19/19) Accurately ripped
28 [31e014d6|38a999a0] (00+19/19) Accurately ripped
29 [c0d2bc29|7908ab54] (00+19/19) Accurately ripped
30 [d50f3e19|ed217010] (00+19/19) Accurately ripped
31 [3140f4b0|bef731b4] (00+19/19) Accurately ripped
32 [0bd085c7|2c57be95] (00+19/19) Accurately ripped
33 [87f3421e|82864293] (00+19/19) Accurately ripped
34 [d376edbd|0fc15a40] (00+19/19) Accurately ripped
35 [879d889e|4b8abc12] (00+19/19) Accurately ripped
36 [d02c1a02|8b83ee60] (00+19/19) Accurately ripped
37 [0f80407b|caab97a8] (00+19/19) Accurately ripped
38 [375cefa7|61c2f935] (00+19/19) Accurately ripped
39 [fd2fcd92|7371feb5] (00+19/19) Accurately ripped
40 [5a33d784|84ed9312] (00+19/19) Accurately ripped
41 [6706cbf0|950798ed] (00+19/19) Accurately ripped

Track Peak [ CRC32 ] [W/O NULL] [ LOG ]
– 96,1 [7EEC6331] [DE2131A8] CRC32
01 58,1 [7E662653] [FDF67C2A]
02 74,1 [52B5C6AA] [4EC60920]
03 14,9 [F71AF284] [833A5125]
04 20,2 [1F9AD09F] [A75A6ECD]
05 55,0 [FE3B220C] [63D6D86B]
06 49,1 [FDA213FB] [4309EE50]
07 91,4 [29C8AC8A] [8C315D1B]
08 43,9 [CB473265] [6D318964]
09 47,4 [6DB66123] [CFED1F22]
10 80,5 [AE031611] [8E45B293]
11 55,4 [61FF418C] [E616168A]
12 63,1 [978D2C3A] [40EB4675]
13 77,6 [B110DDDB] [A668852B]
14 6,2 [D4BD0526] [551B4525]
15 95,7 [F260C168] [5A5C4242]
16 88,1 [61B51B4B] [37C46C96]
17 93,5 [C23BCF51] [83056753]
18 64,0 [674A1070] [482CDF07]
19 73,8 [3167303A] [C195D118]
20 70,2 [161868CA] [15CF350C]
21 65,0 [E4FCBD55] [4150EF05]
22 9,2 [DB48A861] [174A3B07]
23 21,3 [F334E037] [6D1E8858]
24 40,4 [46155CA5] [E478BCE8]
25 48,6 [16FDBE95] [6CAA0028]
26 55,8 [2A762ACB] [C781FBF3]
27 19,8 [BEF33D9C] [31660276]
28 15,0 [C303DB70] [AB88097B]
29 22,2 [4D75C7FB] [A0154860]
30 23,4 [A7C97050] [407145B2]
31 38,3 [38516AA7] [143B8DDD]
32 38,0 [E19D1578] [24A7E788]
33 15,6 [99C9FBC2] [E3AB31B1]
34 23,9 [BAB74A64] [B5A24DA6]
35 96,1 [B06C84F5] [16423D71]
36 59,9 [BF3DDF23] [98750FE5]
37 22,5 [70E6BA04] [D33EA152]
38 10,5 [A6A45BD1] [3A583424]
39 16,3 [5F6D19C5] [DE935BAE]
40 62,7 [32F85E07] [005D2696]
41 8,9 [C713EE27] [7C51AF11]

foobar2000 1.2 / Dynamic Range Meter 1.1.1
log date: 2018-11-12 19:31:15

––––––––––––––––––––––––––––––––––––––––
Analyzed: Steven Osborne / Musorgsky - Pictures From an Exhibition; Prokofiev - Sarcasms & Visions Fugit…
––––––––––––––––––––––––––––––––––––––––

DR Peak RMS Duration Track
––––––––––––––––––––––––––––––––––––––––
DR11 -4.71 dB -19.36 dB 1:17 01-Musorgsky: Pictures From an Exhibition - Promenade 1
DR13 -2.60 dB -22.25 dB 2:48 02-Musorgsky: Pictures From an Exhibition - No 1: Gnomus
DR11 -16.51 dB -34.62 dB 0:51 03-Musorgsky: Pictures From an Exhibition - Promenade 2
DR14 -13.87 dB -36.00 dB 4:37 04-Musorgsky: Pictures From an Exhibition - No 2: The Old Castle
DR12 -5.18 dB -19.67 dB 0:25 05-Musorgsky: Pictures From an Exhibition - Promenade 3
DR14 -6.17 dB -26.74 dB 0:58 06-Musorgsky: Pictures From an Exhibition - No 3: Tuileries
DR15 -0.77 dB -20.59 dB 3:50 07-Musorgsky: Pictures From an Exhibition - No 4: Bydlo
DR12 -7.15 dB -26.13 dB 0:50 08-Musorgsky: Pictures From an Exhibition - Promenade 4
DR16 -6.47 dB -28.26 dB 1:10 09-Musorgsky: Pictures From an Exhibition - No 5: Ballet of the Unhatched Chicks
DR13 -1.88 dB -20.73 dB 2:21 10-Musorgsky: Pictures From an Exhibition - No 6: Two Polish Jews, One Rich, the…
DR11 -5.12 dB -18.45 dB 1:15 11-Musorgsky: Pictures From an Exhibition - Promenade 5
DR11 -3.99 dB -18.40 dB 1:22 12-Musorgsky: Pictures From an Exhibition - No 7: Limoges, the Market Place
DR17 -2.20 dB -27.44 dB 2:45 13-Musorgsky: Pictures From an Exhibition - No 8a: Catacombae
DR12 -24.03 dB -40.52 dB 2:12 14-Musorgsky: Pictures From an Exhibition - No 8b: Con mortuis in lingua mortua
DR12 -0.38 dB -16.87 dB 3:19 15-Musorgsky: Pictures From an Exhibition - No 9: Baba Yaga
DR13 -1.10 dB -18.45 dB 5:47 16-Musorgsky: Pictures From an Exhibition - No 10: The Great Gate of Kiev
DR12 -0.58 dB -19.93 dB 1:56 17-Prokofiev: Sarcasms, Op.17 - 1. Tempestoso
DR11 -3.87 dB -21.57 dB 1:10 18-Prokofiev: Sarcasms, Op.17 - 2. Allegro rubato
DR12 -2.63 dB -19.98 dB 1:43 19-Prokofiev: Sarcasms, Op.17 - 3. Allegro precipitato
DR11 -3.07 dB -20.26 dB 2:09 20-Prokofiev: Sarcasms, Op.17 - 4. Smanioso
DR15 -3.74 dB -27.48 dB 3:37 21-Prokofiev: Sarcasms, Op.17 - 5. Precipitosissimo
DR10 -20.68 dB -38.63 dB 1:01 22-Prokofiev: Visions Fugitives, Op.22 - 01. Lentamente
DR13 -13.43 dB -33.52 dB 1:10 23-Prokofiev: Visions Fugitives, Op.22 - 02. Andante
DR11 -7.85 dB -24.78 dB 0:47 24-Prokofiev: Visions Fugitives, Op.22 - 03. Allegretto
DR11 -6.27 dB -23.39 dB 0:58 25-Prokofiev: Visions Fugitives, Op.22 - 04. Animato
DR9 -5.05 dB -20.01 dB 0:23 26-Prokofiev: Visions Fugitives, Op.22 - 05. Molto giocoso
DR13 -14.05 dB -32.68 dB 0:24 27-Prokofiev: Visions Fugitives, Op.22 - 06. Con eleganza
DR13 -16.43 dB -36.06 dB 1:47 28-Prokofiev: Visions Fugitives, Op.22 - 07. Pittoresco
DR10 -13.06 dB -29.16 dB 0:57 29-Prokofiev: Visions Fugitives, Op.22 - 08. Comodo
DR12 -12.58 dB -29.69 dB 1:04 30-Prokofiev: Visions Fugitives, Op.22 - 09. Allegretto tranquillo
DR13 -8.32 dB -28.51 dB 0:48 31-Prokofiev: Visions Fugitives, Op.22 - 10. Ridicolosamente
DR15 -8.39 dB -30.35 dB 1:08 32-Prokofiev: Visions Fugitives, Op.22 - 11. Con vivacitа
DR12 -16.11 dB -35.06 dB 0:54 33-Prokofiev: Visions Fugitives, Op.22 - 12. Assai moderato
DR9 -12.40 dB -27.01 dB 0:29 34-Prokofiev: Visions Fugitives, Op.22 - 13. Allegretto
DR13 -0.34 dB -18.22 dB 0:55 35-Prokofiev: Visions Fugitives, Op.22 - 14. Feroce
DR12 -4.45 dB -21.59 dB 0:51 36-Prokofiev: Visions Fugitives, Op.22 - 15. Inquieto
DR12 -12.92 dB -30.26 dB 1:23 37-Prokofiev: Visions Fugitives, Op.22 - 16. Dolente
DR11 -19.50 dB -38.69 dB 0:58 38-Prokofiev: Visions Fugitives, Op.22 - 17. Poetico
DR12 -15.74 dB -33.55 dB 1:08 39-Prokofiev: Visions Fugitives, Op.22 - 18. Con una dolce lentezza
DR12 -4.05 dB -20.51 dB 0:43 40-Prokofiev: Visions Fugitives, Op.22 - 19. Presto agitatissimo & molto accentuato
DR12 -20.99 dB -40.27 dB 1:48 41-Prokofiev: Visions Fugitives, Op.22 - 20. Lento
––––––––––––––––––––––––––––––––––––––––

Number of tracks: 41
Official DR value: DR12

Samplerate: 44100 Hz
Channels: 2
Bits per sample: 16
Bitrate: 369 kbps
Codec: FLAC
================================================================================

Steven Osborne - Modest Musorgsky: Pictures From an Exhibition; Sergei Prokofiev: Visions Fugitives, Five Sarcasms (2013)

All thanks to original releaser - A-Z

More interesting music in My Blog