Tags
Language
Tags

Stevie Ray Vaughan & Double Trouble - The Sky Is Crying (1991)

Posted By: v3122
Stevie Ray Vaughan & Double Trouble - The Sky Is Crying (1991)

Stevie Ray Vaughan & Double Trouble - The Sky Is Crying (1991)
EAC | Flac(Image) + Cue + Log & MP3 CBR 320Kbps
Epic, EK 47390 | ~ 250 or 92 Mb | Artwork(png) -> 238 Mb
Blues, Blues Rock

The posthumously assembled ten-track outtakes collection The Sky Is Crying actually proves to be one of Stevie Ray Vaughan's most consistent albums, rivaling In Step as the best outside of the Greatest Hits collection. These songs were recorded in sessions spanning from 1984's Couldn't Stand the Weather to 1989's In Step and were left off of the LPs for whatever reason (or, in the case of Soul to Soul's "Empty Arms," a different version was used). What makes the record work is its eclectic diversity – Vaughan plays slide guitar on "Boot Hill" and acoustic on "Life by the Drop"; he smokes on the slow blues of "May I Have a Talk With You" and the title track just as much as on the up-tempo Lonnie Mack cover, "Wham"; and he shows the jazzy side of his playing on Hendrix's "Little Wing" and Kenny Burrell's "Chitlins Con Carne." But it's not just musical diversity that makes the record work, it's also Vaughan's emotional range. From the morbidly dark "Boot Hill" to the lilting "Little Wing" to the exuberant tributes to his influences – Lonnie Mack on "Wham" and Albert King on "The Sky Is Crying" – Vaughan makes the material resonate, and in light of his death, "The Sky Is Crying" and the touching survivor-story ballad "Life by the Drop" are two of the most moving moments in Vaughan's oeuvre.

by Steve Huey, allmusic
Stevie Ray Vaughan & Double Trouble - The Sky Is Crying (1991)

Stevie Ray Vaughan & Double Trouble - The Sky Is Crying (1991):

Stevie Ray Vaughan & Double Trouble - The Sky Is Crying (1991)

Tracklist:

01. Boot Hill 02:16
02. The Sky Is Crying 04:38
03. Empty Arms 03:31
04. Little Wing 06:50
05. Wham 02:27
06. May I Have A Talk With You 05:50
07. Close To You 03:13
08. Chitlins Con Carne 03:59
09. So Excited 03:32
10. Life By The Drop 02:27

Exact Audio Copy V1.0 beta 3 from 29. August 2011

EAC extraction logfile from 5. November 2019, 18:28

Stevie Ray Vaughan & Double Trouble / The Sky Is Crying (EK 47390)

Used drive : HL-DT-STDVD-RAM GSA-H22L Adapter: 4 ID: 4

Read mode : Secure
Utilize accurate stream : Yes
Defeat audio cache : Yes
Make use of C2 pointers : No

Read offset correction : 102
Overread into Lead-In and Lead-Out : No
Fill up missing offset samples with silence : Yes
Delete leading and trailing silent blocks : No
Null samples used in CRC calculations : Yes
Used interface : Native Win32 interface for Win NT & 2000

Used output format : User Defined Encoder
Selected bitrate : 768 kBit/s
Quality : High
Add ID3 tag : No
Command line compressor : C:\Program Files\FLAC Frontend\tools\flac.exe
Additional command line options : -V -8 %source%


TOC of the extracted CD

Track | Start | Length | Start sector | End sector
––––––––––––––––––––––––––––-
1 | 0:00.00 | 2:16.32 | 0 | 10231
2 | 2:16.32 | 4:38.33 | 10232 | 31114
3 | 6:54.65 | 3:31.05 | 31115 | 46944
4 | 10:25.70 | 6:50.42 | 46945 | 77736
5 | 17:16.37 | 2:27.25 | 77737 | 88786
6 | 19:43.62 | 5:50.70 | 88787 | 115106
7 | 25:34.57 | 3:13.68 | 115107 | 129649
8 | 28:48.50 | 3:59.20 | 129650 | 147594
9 | 32:47.70 | 3:32.55 | 147595 | 163549
10 | 36:20.50 | 2:27.52 | 163550 | 174626


Range status and errors

Selected range

Filename D:\Загрузки\Ready.zp\Stevie Ray Vaughan\Stevie Ray Vaughan & Double Trouble - 1991 - The Sky Is Crying (EK 47390)\Stevie Ray Vaughan & Double Trouble - The Sky Is Crying (EK 47390).wav

Peak level 97.3 %
Extraction speed 2.4 X
Range quality 99.9 %
Test CRC B8C48864
Copy CRC B8C48864
Copy OK

No errors occurred


AccurateRip summary

Track 1 accurately ripped (confidence 7) [09A61FEE] (AR v2)
Track 2 accurately ripped (confidence 7) [F3B9A6C0] (AR v2)
Track 3 accurately ripped (confidence 7) [F53F3AC1] (AR v2)
Track 4 accurately ripped (confidence 7) [2B702C99] (AR v2)
Track 5 accurately ripped (confidence 7) [26B5CFA6] (AR v2)
Track 6 accurately ripped (confidence 7) [FB404B86] (AR v2)
Track 7 accurately ripped (confidence 7) [79332370] (AR v2)
Track 8 accurately ripped (confidence 7) [36BD1DFE] (AR v2)
Track 9 accurately ripped (confidence 7) [1F09C188] (AR v2)
Track 10 accurately ripped (confidence 7) [38035B8A] (AR v2)

All tracks accurately ripped

End of status report

–– CUETools DB Plugin V2.1.3

[CTDB TOCID: kH7NcKcGL9rPhr.mTP1vF6hVNSQ-] found, Submit result: kH7NcKcGL9rPhr.mTP1vF6hVNSQ- has been confirmed
[da110d9f] (392/413) Accurately ripped
[1fe1e9a6] (001/413) No match
[093a7448] (001/413) No match
[e0b98cc9] (001/413) No match
[c89f331e] (001/413) No match
[0501d355] (001/413) No match
[1a44a5b8] (001/413) No match
[a63e47c0] (001/413) No match
[41c7701c] (001/413) No match
[d5deaf1c] (001/413) No match
[8b33d884] (001/413) No match
[0bec6519] (001/413) No match
[ba19bd3f] (001/413) No match
[39d48f64] (001/413) No match
[aa0d282f] (001/413) No match
[c904b2bd] (001/413) No match
[b5189928] (001/413) No match
[483861f4] (001/413) No match
[527b70e2] (001/413) No match
[3de954da] (001/413) No match
[f001cb5e] (001/413) No match
[0abf38dd] (001/413) No match


==== Log checksum 6E22C2A7102490CF0F00F6188C9346815BACF674F0F2EA2C935E828B3B8E7BD1 ====


[CUETools log; Date: 14.12.2019 20:24:58; Version: 2.1.4]
[AccurateRip ID: 000f0901-0079516a-8309180a] found.
Track [ CRC | V2 ] Status
01 [91c54fc8|09a61fee] (013+007/415) Accurately ripped
02 [73a70778|f3b9a6c0] (012+007/418) Accurately ripped
03 [46cd40ba|f53f3ac1] (012+007/418) Accurately ripped
04 [ff3c7436|2b702c99] (012+007/418) Accurately ripped
05 [24d0a4ce|26b5cfa6] (012+007/416) Accurately ripped
06 [88c91b49|fb404b86] (012+007/411) Accurately ripped
07 [0c362d41|79332370] (012+007/416) Accurately ripped
08 [0632355e|36bd1dfe] (013+007/412) Accurately ripped
09 [0bfc5058|1f09c188] (012+007/411) Accurately ripped
10 [ef480233|38035b8a] (013+007/415) Accurately ripped
Offsetted by -180:
01 [d6f71d4c] (010/415) Accurately ripped
02 [13273908] (010/418) Accurately ripped
03 [56f3a7c2] (010/418) Accurately ripped
04 [f29da52e] (012/418) Accurately ripped
05 [1211f6d6] (010/416) Accurately ripped
06 [3c2d39fd] (010/411) Accurately ripped
07 [56487af9] (010/416) Accurately ripped
08 [379bf7da] (010/412) Accurately ripped
09 [f977a5f0] (010/411) Accurately ripped
10 [964550e3] (011/415) Accurately ripped
Offsetted by -56:
01 [c3be0ce0] (034/415) Accurately ripped
02 [a54660d8] (034/418) Accurately ripped
03 [4bd382ea] (035/418) Accurately ripped
04 [c26bc206] (034/418) Accurately ripped
05 [7a0168fe] (035/416) Accurately ripped
06 [f3cbcf81] (035/411) Accurately ripped
07 [50c46791] (035/416) Accurately ripped
08 [e80ed846] (034/412) Accurately ripped
09 [44cd59e8] (035/411) Accurately ripped
10 [6d306a53] (033/415) Accurately ripped
Offsetted by -32:
01 [652ee068] (002/415) Accurately ripped
02 [900215f8] (002/418) Accurately ripped
03 [49ac41fa] (002/418) Accurately ripped
04 [6ec532f6] (002/418) Accurately ripped
05 [9ea35e0e] (002/416) Accurately ripped
06 [0f13cb69] (002/411) Accurately ripped
07 [57f52a01] (002/416) Accurately ripped
08 [d06724be] (002/412) Accurately ripped
09 [bebce818] (002/411) Accurately ripped
10 [12a83db3] (002/415) Accurately ripped
Offsetted by -31:
01 [569393e3] (008/415) Accurately ripped
02 [4f1f3d84] (008/418) Accurately ripped
03 [099549f0] (008/418) Accurately ripped
04 [8b48ed00] (008/418) Accurately ripped
05 [0ad4c844] (007/416) Accurately ripped
06 [9ae175e8] (007/411) Accurately ripped
07 [4d97321b] (008/416) Accurately ripped
08 [9a157d43] (008/412) Accurately ripped
09 [7926e35a] (007/411) Accurately ripped
10 [f98d3bd7] (008/415) Accurately ripped
Offsetted by -17:
01 [8a15649d] (003/415) Accurately ripped
02 [c2b7672c] (004/418) Accurately ripped
03 [8853b964] (003/418) Accurately ripped
04 [1a7d198c] (004/418) Accurately ripped
05 [f5889738] (003/416) Accurately ripped
06 [4020c8da] (003/411) Accurately ripped
07 [bc73a387] (003/416) Accurately ripped
08 [a19e5489] (003/412) Accurately ripped
09 [aaf2a0f6] (003/411) Accurately ripped
10 [9a1321cf] (003/415) Accurately ripped
Offsetted by 32:
01 [be5bbf28] (002/415) Accurately ripped
02 [574bf8f8] (002/418) Accurately ripped
03 [43ee3f7a] (002/418) Accurately ripped
04 [8fb3b576] (002/418) Accurately ripped
05 [aafdeb8e] (002/416) Accurately ripped
06 [027e6b29] (002/411) Accurately ripped
07 [c0773081] (002/416) Accurately ripped
08 [3bfd45fe] (002/412) Accurately ripped
09 [593bb898] (002/411) Accurately ripped
10 [cbe7c6b3] (002/415) Accurately ripped
Offsetted by 45:
01 [0078dc67] (024/415) Accurately ripped
02 [0bc6fb14] (024/418) Accurately ripped
03 [02c3a6f8] (024/418) Accurately ripped
04 [026427f8] (024/418) Accurately ripped
05 [2980504c] (025/416) Accurately ripped
06 [1bf0139c] (024/411) Accurately ripped
07 [39b199d3] (023/416) Accurately ripped
08 [79d7c4bf] (023/412) Accurately ripped
09 [d09d7af2] (023/411) Accurately ripped
10 [8588ae87] (024/415) Accurately ripped
Offsetted by 55:
01 [6e67df35] (003/415) Accurately ripped
02 [82ea868c] (003/418) Accurately ripped
03 [81ddf694] (003/418) Accurately ripped
04 [1f896c5c] (003/418) Accurately ripped
05 [636e7668] (003/416) Accurately ripped
06 [91f8bc92] (003/411) Accurately ripped
07 [d205ead7] (003/416) Accurately ripped
08 [5aa739f1] (002/412) Accurately ripped
09 [18c14b86] (002/411) Accurately ripped
10 [8a7a9bef] (002/415) Accurately ripped
Offsetted by 151:
01 [f42b2d55] (037/415) Accurately ripped
02 [2dd95b0c] (038/418) Accurately ripped
03 [7940f2d4] (037/418) Accurately ripped
04 [d0ef301c] (037/418) Accurately ripped
05 [f5f64aa8] (038/416) Accurately ripped
06 [ff18ac32] (038/411) Accurately ripped
07 [eec8f497] (037/416) Accurately ripped
08 [fc086bd1] (037/412) Accurately ripped
09 [007f8446] (038/411) Accurately ripped
10 [2059e96f] (037/415) Accurately ripped
Offsetted by 152:
01 [e58fe0d0] (016/415) Accurately ripped
02 [ecf68298] (016/418) Accurately ripped
03 [3929faca] (016/418) Accurately ripped
04 [ed72ea26] (016/418) Accurately ripped
05 [6227b4de] (016/416) Accurately ripped
06 [8ae656b1] (016/411) Accurately ripped
07 [e46afcb1] (016/416) Accurately ripped
08 [c5b6c456] (016/412) Accurately ripped
09 [bae97f88] (016/411) Accurately ripped
10 [073ee793] (015/415) Accurately ripped
Offsetted by 318:
01 [6cdc4292] (005/415) Accurately ripped
02 [d9de2760] (005/418) Accurately ripped
03 [aa45244e] (005/418) Accurately ripped
04 [6add8ca2] (005/418) Accurately ripped
05 [8a3293e2] (005/416) Accurately ripped
06 [3242e50b] (005/411) Accurately ripped
07 [2b7c3d8d] (005/416) Accurately ripped
08 [8cc42a94] (005/412) Accurately ripped
09 [9ba26c54] (005/411) Accurately ripped
10 [bfbbb2eb] (005/415) Accurately ripped
Offsetted by 803:
01 [c0a44a99] (006/415) Accurately ripped
02 [ec1a139c] (007/418) Accurately ripped
03 [3ec1395c] (007/418) Accurately ripped
04 [706d0194] (007/418) Accurately ripped
05 [83d0cc30] (007/416) Accurately ripped
06 [0ee6e7a6] (006/411) Accurately ripped
07 [877596cf] (006/416) Accurately ripped
08 [a411de8d] (007/412) Accurately ripped
09 [c66b705e] (006/411) Accurately ripped
10 [2f912d1f] (006/415) Accurately ripped
Offsetted by 919:
01 [22459e55] (003/415) Accurately ripped
02 [854fff0c] (003/418) Accurately ripped
03 [3458d4d4] (003/418) Accurately ripped
04 [5c1d4e1c] (003/418) Accurately ripped
05 [8a34eca8] (003/416) Accurately ripped
06 [68182932] (003/411) Accurately ripped
07 [d4e14297] (003/416) Accurately ripped
08 [0711fad1] (003/412) Accurately ripped
09 [3e714a46] (003/411) Accurately ripped
10 [cf54556f] (003/415) Accurately ripped
Offsetted by 1436:
01 [a2a415bc] (038/415) Accurately ripped
02 [7b30dcc8] (039/418) Accurately ripped
03 [c5f5e8a2] (039/418) Accurately ripped
04 [f224044e] (038/418) Accurately ripped
05 [0a006bb6] (038/416) Accurately ripped
06 [be717bad] (038/411) Accurately ripped
07 [e51b9f19] (040/416) Accurately ripped
08 [542abf6a] (038/412) Accurately ripped
09 [b679b690] (039/411) Accurately ripped
10 [1bc99423] (040/415) Accurately ripped
Offsetted by 1071:
01 [76102f5d] (000/415) No match (V2 was not tested)
02 [fe9f7a2c] (000/418) No match (V2 was not tested)
03 [26b58ee4] (000/418) No match (V2 was not tested)
04 [4a53c40c] (000/418) No match (V2 was not tested)
05 [c78bfcb8] (000/416) No match (V2 was not tested)
06 [6a35649a] (000/411) No match (V2 was not tested)
07 [ad161207] (000/416) No match (V2 was not tested)
08 [c69689c9] (000/412) No match (V2 was not tested)
09 [ed5e7976] (000/411) No match (V2 was not tested)
10 [e74b3acf] (000/415) No match (V2 was not tested)

Track Peak [ CRC32 ] [W/O NULL] [ LOG ]
– 97,3 [B8C48864] [6B2B928B] CRC32
01 97,3 [A219BF79] [D5D0EF64]
02 97,3 [3C51DCD7] [5F529069]
03 97,3 [64E0D702] [A6C1F4EB]
04 97,3 [4B9D6750] [BDC660CE]
05 97,3 [F20B3DEA] [E62B0A81]
06 97,3 [119135CF] [BF426365]
07 97,3 [9AB00B7B] [4B23FF6D]
08 97,3 [D4B3374E] [59CC943D]
09 97,3 [4A85DEA5] [247033E0]
10 74,0 [5650C0EA] [B057168B]


Stevie Ray Vaughan & Double Trouble - The Sky Is Crying (1991)

All thanks go to Ready.zp

Stevie Ray Vaughan in my Blog

Download Stevie Ray Vaughan & Double Trouble - The Sky Is Crying (1991):