Subcategories
Tags
Language
Tags

Stevie Wonder - Songs In The Key Of Life (1976) [2011, Audio Fidelity AFZ 2 096]

Posted By: v3122
Stevie Wonder - Songs In The Key Of Life (1976) [2011, Audio Fidelity AFZ 2 096]

Stevie Wonder - Songs In The Key Of Life (1976)
EAC | Flac(Image) + Cue + Log & MP3 CBR 320Kbps
2CD | Audio Fidelity, AFZ 2 096 | ~ 632 or 253 Mb | Scans(png) -> 104 Mb
Rhythm & Blues, Funk, Soul

Songs in the Key of Life was Stevie Wonder's longest, most ambitious collection of songs, a two-LP (plus accompanying EP) set that – just as the title promised – touched on nearly every issue under the sun, and did it all with ambitious (even for him), wide-ranging arrangements and some of the best performances of Wonder's career. The opening "Love's in Need of Love Today" and "Have a Talk with God" are curiously subdued, but Stevie soon kicks into gear with "Village Ghetto Land," a fierce exposé of ghetto neglect set to a satirical Baroque synthesizer. Hot on its heels comes the torrid fusion jam "Contusion," a big, brassy hit tribute to the recently departed Duke Ellington in "Sir Duke," and (another hit, this one a Grammy winner as well) the bumping poem to his childhood, "I Wish." Though they didn't necessarily appear in order, Songs in the Key of Life contains nearly a full album on love and relationships, along with another full album on issues social and spiritual. Fans of the love album Talking Book can marvel that he sets the bar even higher here, with brilliant material like the tenderly cathartic and gloriously redemptive "Joy Inside My Tears," the two-part, smooth-and-rough "Ordinary Pain," the bitterly ironic "All Day Sucker," or another classic heartbreaker, "Summer Soft." Those inclined toward Stevie Wonder the social-issues artist had quite a few songs to focus on as well: "Black Man" was a Bicentennial school lesson on remembering the vastly different people who helped build America; "Pastime Paradise" examined the plight of those who live in the past and have little hope for the future; "Village Ghetto Land" brought listeners to a nightmare of urban wasteland; and "Saturn" found Stevie questioning his kinship with the rest of humanity and amusingly imagining paradise as a residency on a distant planet. If all this sounds overwhelming, it is; Stevie Wonder had talent to spare during the mid-'70s, and instead of letting the reserve trickle out during the rest of the decade, he let it all go with one massive burst. (His only subsequent record of the '70s was the similarly gargantuan but largely instrumental soundtrack Journey Through the Secret Life of Plants.)

by John Bush, allmusic
Stevie Wonder - Songs In The Key Of Life (1976):

Stevie Wonder - Songs In The Key Of Life (1976) [2011, Audio Fidelity AFZ 2 096]

Tracklist CD1:

01. Love's In Need Of Love Today [7:05]
02. Have A Talk With God [2:42]
03. Village Ghetto Land [3:25]
04. Contusion [3:46]
05. Sir Duke [3:55]
06. I Wish [4:12]
07. Knocks Me Off My Feet [3:36]
08. Pastime Paradise [3:27]
09. Summer Soft [4:14]
10. Ordinary Pain [6:32]

Exact Audio Copy V0.99 prebeta 5 from 4. May 2009

EAC extraction logfile from 5. February 2014, 0:54

STEVIE WONDER / Songs In The Key Of Life ( AFZ 096-1 )

Used drive : ASUS DRW-24B3ST Adapter: 4 ID: 0

Read mode : Secure
Utilize accurate stream : Yes
Defeat audio cache : Yes
Make use of C2 pointers : No

Read offset correction : 6
Overread into Lead-In and Lead-Out : No
Fill up missing offset samples with silence : Yes
Delete leading and trailing silent blocks : No
Null samples used in CRC calculations : Yes
Used interface : Native Win32 interface for Win NT & 2000

Used output format : User Defined Encoder
Selected bitrate : 1024 kBit/s
Quality : High
Add ID3 tag : No
Command line compressor : C:\Program Files (x86)\EAC\WV\wavpack.exe
Additional command line options : -h -hh -m %s %d


TOC of the extracted CD

Track | Start | Length | Start sector | End sector
––––––––––––––––––––––––––––-
1 | 0:00.00 | 7:05.20 | 0 | 31894
2 | 7:05.20 | 2:41.72 | 31895 | 44041
3 | 9:47.17 | 3:25.14 | 44042 | 59430
4 | 13:12.31 | 3:45.54 | 59431 | 76359
5 | 16:58.10 | 3:54.59 | 76360 | 93968
6 | 20:52.69 | 4:12.17 | 93969 | 112885
7 | 25:05.11 | 3:36.08 | 112886 | 129093
8 | 28:41.19 | 3:27.14 | 129094 | 144632
9 | 32:08.33 | 4:13.74 | 144633 | 163681
10 | 36:22.32 | 6:31.56 | 163682 | 193062


Range status and errors

Selected range

Filename G:\24 KT GOLD\STEVIE WONDER - Songs In The Key Of Life (1976) (US 2 x CD 2011 Audio Fidelity • AFZ 2 096)\STEVIE WONDER - Songs In The Key Of Life ( AFZ 096-1 ).wav

Peak level 100.0 %
Range quality 99.9 %
Test CRC E6171724
Copy CRC E6171724
Copy OK

No errors occurred


AccurateRip summary

Track 1 accurately ripped (confidence 9) [53264B15]
Track 2 accurately ripped (confidence 9) [1174694E]
Track 3 accurately ripped (confidence 9) [76AD203D]
Track 4 accurately ripped (confidence 9) [EAD9E810]
Track 5 accurately ripped (confidence 9) [F1763383]
Track 6 accurately ripped (confidence 9) [78DD4B20]
Track 7 accurately ripped (confidence 9) [61E5D4DF]
Track 8 accurately ripped (confidence 9) [8639283E]
Track 9 accurately ripped (confidence 9) [D8E1FC01]
Track 10 accurately ripped (confidence 8) [1BD8BEE2]

All tracks accurately ripped

End of status report

foobar2000 1.2.9 / Dynamic Range Meter 1.1.1
log date: 2016-11-19 18:00:40

––––––––––––––––––––––––––––––––––––––––
Analyzed: STEVIE WONDER / Songs In The Key Of Life ( AFZ 096-1 )
––––––––––––––––––––––––––––––––––––––––

DR Peak RMS Duration Track
––––––––––––––––––––––––––––––––––––––––
DR13 -1.19 dB -18.44 dB 7:05 01-Love's In Need Of Love Today
DR13 -0.49 dB -15.69 dB 2:42 02-Have A Talk With God
DR12 -4.33 dB -18.57 dB 3:25 03-Village Ghetto Land
DR13 -1.14 dB -16.52 dB 3:46 04-Contusion
DR13 0.00 dB -15.45 dB 3:55 05-Sir Duke
DR15 0.00 dB -16.26 dB 4:12 06-I Wish
DR14 -0.08 dB -18.25 dB 3:36 07-Knocks Me Off My Feet
DR13 -4.08 dB -19.83 dB 3:27 08-Pastime Paradise
DR13 -1.09 dB -17.20 dB 4:14 09-Summer Soft
DR13 -1.24 dB -17.66 dB 6:32 10-Ordinary Pain
––––––––––––––––––––––––––––––––––––––––

Number of tracks: 10
Official DR value: DR13

Samplerate: 44100 Hz
Channels: 2
Bits per sample: 16
Bitrate: 785 kbps
Codec: FLAC

[CUETools log; Date: 19.11.2016 18:00:30; Version: 2.1.4]
HDCD: peak extend: none, transient filter: some, gain: none
[CTDB TOCID: iA8SVWmkJspR4FCzfmWvL9_x9Ag-] found.
Track | CTDB Status
1 | (15/15) Accurately ripped
2 | (15/15) Accurately ripped
3 | (15/15) Accurately ripped
4 | (15/15) Accurately ripped
5 | (15/15) Accurately ripped
6 | (15/15) Accurately ripped
7 | (15/15) Accurately ripped
8 | (15/15) Accurately ripped
9 | (15/15) Accurately ripped
10 | (14/15) Accurately ripped
[AccurateRip ID: 001001df-007e1ae3-7e0a0e0a] found.
Track [ CRC | V2 ] Status
01 [53264b15|7fa3b94b] (11+45/56) Accurately ripped
02 [1174694e|defd996d] (11+44/55) Accurately ripped
03 [76ad203d|fecd98bc] (11+44/55) Accurately ripped
04 [ead9e810|309c4ccc] (11+44/55) Accurately ripped
05 [f1763383|d7993eb6] (11+45/56) Accurately ripped
06 [78dd4b20|fd108343] (11+45/56) Accurately ripped
07 [61e5d4df|9cde889f] (11+45/56) Accurately ripped
08 [8639283e|5ab0c8eb] (11+46/57) Accurately ripped
09 [d8e1fc01|d9cf8a0e] (11+45/56) Accurately ripped
10 [1bd8bee2|e74f8aa2] (10+43/53) Accurately ripped

Track Peak [ CRC32 ] [W/O NULL] [ LOG ]
– 100,0 [E6171724] [790FEDCC] CRC32
01 87,2 [D29E164F] [B7FD3C44]
02 94,5 [414D401E] [49245B75]
03 60,7 [00005A59] [B063BCBC]
04 87,7 [5F13B8A0] [D1833A14]
05 100,0 [98E3220B] [DEE8ABFE]
06 100,0 [CE140510] [B5A5D2D3]
07 99,1 [EC890AEC] [B8363C17]
08 62,4 [83E45C9D] [B3AD0A75]
09 88,1 [4A2C9F72] [77E5950A]
10 86,6 [C051F84B] [8142A2C7]

Stevie Wonder - Songs In The Key Of Life (1976) [2011, Audio Fidelity AFZ 2 096]

Tracklist CD2:

01. Isn't She Lovely [6:34]
02. Joy Inside My Tears [6:29]
03. Black Man [8:33]
04. Ngiculela / Es Una Historia / I Am Singing [3:49]
05. If It's Magic [3:12]
06. As [7:08]
07. Another Star [8:26]
08. Saturn [4:54]
09. Ebony Eyes [4:11]
10. All Day Sucker [5:06]
11. Easy Goin' Evening (My Mama's Call) [3:56]

Exact Audio Copy V0.99 prebeta 5 from 4. May 2009

EAC extraction logfile from 5. February 2014, 0:59

STEVIE WONDER / Songs In The Key Of Life ( AFZ 096-2 )

Used drive : ASUS DRW-24B3ST Adapter: 5 ID: 0

Read mode : Secure
Utilize accurate stream : Yes
Defeat audio cache : Yes
Make use of C2 pointers : No

Read offset correction : 6
Overread into Lead-In and Lead-Out : No
Fill up missing offset samples with silence : Yes
Delete leading and trailing silent blocks : No
Null samples used in CRC calculations : Yes
Used interface : Native Win32 interface for Win NT & 2000

Used output format : User Defined Encoder
Selected bitrate : 1024 kBit/s
Quality : High
Add ID3 tag : No
Command line compressor : C:\Program Files (x86)\EAC\WV\wavpack.exe
Additional command line options : -h -hh -m %s %d


TOC of the extracted CD

Track | Start | Length | Start sector | End sector
––––––––––––––––––––––––––––-
1 | 0:00.00 | 6:33.74 | 0 | 29548
2 | 6:33.74 | 6:29.11 | 29549 | 58734
3 | 13:03.10 | 8:32.39 | 58735 | 97173
4 | 21:35.49 | 3:48.42 | 97174 | 114315
5 | 25:24.16 | 3:11.63 | 114316 | 128703
6 | 28:36.04 | 7:07.56 | 128704 | 160784
7 | 35:43.60 | 8:26.13 | 160785 | 198747
8 | 44:09.73 | 4:53.49 | 198748 | 220771
9 | 49:03.47 | 4:10.38 | 220772 | 239559
10 | 53:14.10 | 5:05.38 | 239560 | 262472
11 | 58:19.48 | 3:56.09 | 262473 | 280181


Range status and errors

Selected range

Filename G:\24 KT GOLD\STEVIE WONDER - Songs In The Key Of Life (1976) (US 2 x CD 2011 Audio Fidelity • AFZ 2 096)\STEVIE WONDER - Songs In The Key Of Life ( AFZ 096-2 ).wav

Peak level 100.0 %
Range quality 100.0 %
Test CRC 63A6C005
Copy CRC 63A6C005
Copy OK

No errors occurred


AccurateRip summary

Track 1 accurately ripped (confidence 10) [BEF867E3]
Track 2 accurately ripped (confidence 10) [0749E523]
Track 3 accurately ripped (confidence 10) [9759AEE3]
Track 4 accurately ripped (confidence 10) [78B3CA66]
Track 5 accurately ripped (confidence 10) [CFAE7B76]
Track 6 accurately ripped (confidence 10) [62FF707C]
Track 7 accurately ripped (confidence 10) [CCDED22C]
Track 8 accurately ripped (confidence 10) [66A1C565]
Track 9 accurately ripped (confidence 10) [57D9649D]
Track 10 accurately ripped (confidence 10) [4FFFDECA]
Track 11 accurately ripped (confidence 10) [46B90F18]

All tracks accurately ripped

End of status report

foobar2000 1.2.9 / Dynamic Range Meter 1.1.1
log date: 2016-11-19 18:01:02

––––––––––––––––––––––––––––––––––––––––
Analyzed: STEVIE WONDER / Songs In The Key Of Life ( AFZ 096-2 )
––––––––––––––––––––––––––––––––––––––––

DR Peak RMS Duration Track
––––––––––––––––––––––––––––––––––––––––
DR15 0.00 dB -17.37 dB 6:34 01-Isn't She Lovely
DR14 -0.23 dB -17.80 dB 6:29 02-Joy Inside My Tears
DR13 -1.93 dB -17.44 dB 8:33 03-Black Man
DR13 -1.45 dB -17.36 dB 3:49 04-Ngiculela~Es Una Historia~I Am Singing
DR13 -3.06 dB -20.77 dB 3:12 05-If It's Magic
DR14 0.00 dB -16.77 dB 7:08 06-As
DR13 0.00 dB -15.75 dB 8:26 07-Another Star
DR12 -1.41 dB -16.65 dB 4:54 08-Saturn
DR13 -1.41 dB -16.21 dB 4:11 09-Ebony Eyes
DR14 -0.29 dB -16.23 dB 5:06 10-All Day Sucker
DR13 -1.27 dB -17.75 dB 3:56 11-Easy Goin' Evening (My Mama's Call)
––––––––––––––––––––––––––––––––––––––––

Number of tracks: 11
Official DR value: DR13

Samplerate: 44100 Hz
Channels: 2
Bits per sample: 16
Bitrate: 808 kbps
Codec: FLAC

[CUETools log; Date: 19.11.2016 18:00:50; Version: 2.1.4]
HDCD: peak extend: none, transient filter: some, gain: none
[CTDB TOCID: m97bMhTSJ9G.Mfd76ufB8usmZ2c-] found.
Track | CTDB Status
1 | (15/15) Accurately ripped
2 | (15/15) Accurately ripped
3 | (15/15) Accurately ripped
4 | (15/15) Accurately ripped
5 | (15/15) Accurately ripped
6 | (15/15) Accurately ripped
7 | (15/15) Accurately ripped
8 | (15/15) Accurately ripped
9 | (15/15) Accurately ripped
10 | (15/15) Accurately ripped
11 | (14/15) Accurately ripped
[AccurateRip ID: 001b5416-00e9b112-a30e970b] found.
Track [ CRC | V2 ] Status
01 [bef867e3|b13041d5] (12+45/57) Accurately ripped
02 [0749e523|506fc107] (12+45/57) Accurately ripped
03 [9759aee3|41263b22] (12+44/56) Accurately ripped
04 [78b3ca66|8ef725ad] (12+45/57) Accurately ripped
05 [cfae7b76|416a3801] (12+45/57) Accurately ripped
06 [62ff707c|dfe8ec39] (12+45/57) Accurately ripped
07 [ccded22c|ad4fa0d9] (12+44/56) Accurately ripped
08 [66a1c565|ffa98a32] (12+44/56) Accurately ripped
09 [57d9649d|0cc20a00] (12+44/56) Accurately ripped
10 [4fffdeca|0f576cf3] (12+44/56) Accurately ripped
11 [46b90f18|9a3faf86] (12+44/56) Accurately ripped

Track Peak [ CRC32 ] [W/O NULL] [ LOG ]
– 100,0 [63A6C005] [5E057999] CRC32
01 100,0 [121834DE] [4584FEB9]
02 97,4 [3679902D] [07BFAC83]
03 80,0 [9E012BD9] [E60E4243]
04 84,6 [89676070] [A58F243C]
05 70,3 [F079D81C] [3D46035C]
06 100,0 [6552E3E0] [782FCC1D]
07 100,0 [F7A4B064] [F73D67C2]
08 84,9 [3AF60A90] [36EC5938]
09 85,0 [895744E8] [ACF49CDE]
10 96,7 [E7ABF9A8] [863A4981]
11 86,3 [0F10B0D8] [1556DC5F]

Stevie Wonder - Songs In The Key Of Life (1976) [2011, Audio Fidelity AFZ 2 096]

All thanks go to the original releaser

Stevie Wonder in my Blog

Download Stevie Wonder - Songs In The Key Of Life (1976):