Subcategories
Tags
Language
Tags

Still Wish You Were Here: A Tribute To Pink Floyd (2021)

Posted By: v3122
Still Wish You Were Here: A Tribute To Pink Floyd (2021)

Still Wish You Were Here: A Tribute To Pink Floyd (2021)
EAC | Flac(Image) + Cue + Log & MP3 CBR 320Kbps
Cleopatra Records‎, CLO2309 | RU | ~ 273 or 103 Mb | Artwork(jpg) -> 10 Mb
Psychedelic Rock, Prog Rock, Classic Rock

Pink Floyd's 1975 multi-platinum masterpiece, Wish You Were Here, is brought to life once again with an all-star line-up of rock/metal royalty performing the album in it's entirety! Includes performances by keyboard wizard Rick Wakeman, Deep Purple's Ian Paice, Rock Hall nominee Todd Rundgren, ex-Queensrÿche vocalist Geoff Tate, guitar god Joe Satriani, Dream Theater vocalist James LaBrie, spacebass super genius Bootsy Collins, The Damned's Rat Scabies, PiL's Jah Wobble and lots more!
Still Wish You Were Here: A Tribute To Pink Floyd (2021):

Still Wish You Were Here: A Tribute To Pink Floyd (2021)

Tracklist:

01. Geoff Tate - Shine On You Crazy Diamond 13:17
02. Todd Rundgren - Welcome To The Machine 6:58
03. James LaBrie - Have A Cigar 5:07
04. Rik Emmett - Wish You Were Here 5:34
05. Rod Argent - Shine On You Crazy Diamond (Parts 6-9) 12:39

Exact Audio Copy V1.3 from 2. September 2016

Отчёт EAC об извлечении, выполненном 23. июня 2021, 14:53

Various Artists / Still Wish You Were Here - A Tribute To Pink Floyd

Дисковод: ATAPI iHAS122 F Adapter: 1 ID: 0

Режим чтения : Достоверность
Использование точного потока : Да
Отключение кэша аудио : Да
Использование указателей C2 : Нет

Коррекция смещения при чтении : 6
Способность читать области Lead-in и Lead-out : Нет
Заполнение пропущенных сэмплов тишиной : Да
Удаление блоков с тишиной в начале и конце : Нет
При вычислениях CRC использовались нулевые сэмплы : Да
Интерфейс : Встроенный Win32-интерфейс для Win NT/2000

Выходной формат : Пользовательский кодировщик
Выбранный битрейт : 1024 kBit/s
Качество : Высокий
Добавление ID3-тега : Нет
Утилита сжатия : C:\Program Files (x86)\Exact Audio Copy\Flac\flac.exe
Дополнительные параметры : -V -8 -T "Date=%year%" -T "Genre=%genre%" %source%


TOC извлечённого CD

Трек | Старт | Длительность | Начальный сектор | Конечный сектор
––––––––––––––––––––––––––––––––––-
1 | 0:00.00 | 13:16.50 | 0 | 59749
2 | 13:16.50 | 6:57.58 | 59750 | 91082
3 | 20:14.33 | 5:07.13 | 91083 | 114120
4 | 25:21.46 | 5:33.66 | 114121 | 139161
5 | 30:55.37 | 12:38.66 | 139162 | 196077


Характеристики диапазона извлечения и сообщения об ошибках

Выбранный диапазон

Имя файла E:\Torrents-seed\Various Artists - 2021 - Still Wish You Were Here - A Tribute To Pink Floyd\Various Artists - Still Wish You Were Here - A Tribute To Pink Floyd.wav

Пиковый уровень 97.7 %
Скорость извлечения 8.8 X
Качество диапазона 100.0 %
CRC теста 73C926D7
CRC копии 73C926D7
Копирование… OK

Ошибок не произошло


AccurateRip: сводка

Трек 1 отсутствует в базе данных
Трек 2 отсутствует в базе данных
Трек 3 отсутствует в базе данных
Трек 4 отсутствует в базе данных
Трек 5 отсутствует в базе данных

Ни одного трека нет в базе AccurateRip

Конец отчёта

==== Контрольная сумма отчёта BA4F90D20C0E3CAA93FEB7F3E9027A216089AA14CDDE3E732D7EAE900993F97B ====


[CUETools log; Date: 23.06.2021 22:20:12; Version: 2.1.4]
[AccurateRip ID: 00092882-002986e8-440a3605] disk not present in database.

Track Peak [ CRC32 ] [W/O NULL] [ LOG ]
– 97,7 [73C926D7] [B76363FE] CRC32
01 97,7 [62476D55] [51E01CC1]
02 97,7 [1C0658D2] [CEEF23C9]
03 97,7 [687D2537] [61E5978A]
04 97,7 [7520030C] [AD7DF1D6]
05 97,7 [4DB4B34C] [6125CD6C]


Still Wish You Were Here: A Tribute To Pink Floyd (2021)

All thanks go to the original releaser

Pink Floyd in my Blog

Download Still Wish You Were Here: A Tribute To Pink Floyd (2021):