Subcategories

Stone Fury - Burns Like A Star (1984) [Japan (mini LP) SHM-CD, 2013]

Posted By: Andi_Deris
Stone Fury - Burns Like A Star (1984) [Japan (mini LP) SHM-CD, 2013]

Stone Fury - Burns Like A Star (1984) [Japan (mini LP) SHM-CD, 2013]
EAC Rip | FLAC: Image+Cue+Log | MP3 CBR 320 kbps | Scans
285 Mb | 101 Mb | 39 Mb | Time: 38:55
Geffen Records/Universal Music LLC | UICY-76001
Melodic Hard Rock, Hair Metal

Before he was in Kingdom Come, Lenny Wolf (possessor of without a doubt one of the best voices in hard rock) was in Stone Fury. This was his first band after coming to LA from Germany, and it's good stuff. This is the first of two studio albums Stone Fury put out, and possesses the moderate hit Break Down the Walls. Stone Fury isn't as polished as Kingdom Come, with a rawer sound, but KC fans will love this.

Stone Fury - Burns Like A Star (1984) [Japan (mini LP) SHM-CD, 2013]




Track Listing

01. Break Down The Wall (04:10)
02. I Hate To Sleep Alone (03:51)
03. Life Is Too Lonely (04:28)
04. Don't Tell Me Why (04:07)
05. Mamas Love (03:34)
06. Burns Like A Star (05:48)
07. Tease (04:01)
08. Hold It (03:27)
09. Shannon You Lose (05:30)

Produced by Andy Johns

The Band

• Lenny Wolf: Lead Vocals, Rhythm Guitar
• Bruce Gowdy: Lead and Rhythm Guitar, Backing Vocals
• Rick Wilson: Bass, Backing Vocals
• Jody Cortez: Drums, Percussion

*****
• George Perilli: Drums
• Peter Parnegg: Bass

Exact Audio Copy V1.0 beta 3 from 29. August 2011

EAC extraction logfile from 19. January 2014, 21:34

Stone Fury / Burns Like A Star

Used drive : SlimtypeDVD A DS8A5SH Adapter: 0 ID: 1

Read mode : Secure
Utilize accurate stream : Yes
Defeat audio cache : Yes
Make use of C2 pointers : No

Read offset correction : 6
Overread into Lead-In and Lead-Out : No
Fill up missing offset samples with silence : Yes
Delete leading and trailing silent blocks : No
Null samples used in CRC calculations : Yes
Used interface : Native Win32 interface for Win NT & 2000

Used output format : User Defined Encoder
Selected bitrate : 320 kBit/s
Quality : High
Add ID3 tag : No
Command line compressor : C:\Program Files (x86)\Exact Audio Copy\Flac\flac.exe
Additional command line options : -V -8 -T "Date=%year%" -T "Genre=%genre%" %source%


TOC of the extracted CD

Track | Start | Length | Start sector | End sector
––––––––––––––––––––––––––––-
1 | 0:00.00 | 4:09.38 | 0 | 18712
2 | 4:09.38 | 3:51.03 | 18713 | 36040
3 | 8:00.41 | 4:28.19 | 36041 | 56159
4 | 12:28.60 | 4:06.35 | 56160 | 74644
5 | 16:35.20 | 3:33.56 | 74645 | 90675
6 | 20:09.01 | 5:47.51 | 90676 | 116751
7 | 25:56.52 | 4:00.56 | 116752 | 134807
8 | 29:57.33 | 3:26.46 | 134808 | 150303
9 | 33:24.04 | 5:30.21 | 150304 | 175074


Range status and errors

Selected range

Filename D:\My Music\Stone Fury - 1984 Burns Like A Star (Japanese SHMCD Mini-LP 2013)\Stone Fury - Burns Like A Star.wav

Peak level 100.0 %
Extraction speed 4.0 X
Range quality 100.0 %
Test CRC 6278BE0E
Copy CRC 6278BE0E
Copy OK

No errors occurred


AccurateRip summary

Track 1 not present in database
Track 2 not present in database
Track 3 not present in database
Track 4 not present in database
Track 5 not present in database
Track 6 not present in database
Track 7 not present in database
Track 8 not present in database
Track 9 not present in database

None of the tracks are present in the AccurateRip database

End of status report

==== Log checksum 80398829AAD75C7ADD315C88F9B4694111AA85A89459A657F4B04753A5757099 ====


Many thanks to the original uploader: kolushew





Password: pass