Tags
Language
Tags

Storm Corrosion - Storm Corrosion (2012)

Posted By: gribovar
Storm Corrosion - Storm Corrosion (2012)

Storm Corrosion - Storm Corrosion (2012)
EAC Rip | WavPack (image+.cue+log) - 205 MB | Covers - 66 MB
Genre: Progressive Rock | RAR 3% Rec. | Label: Roadrunner Records (RR7645-2)

Mikael Åkerfeldt of Opeth and Steven Wilson of Porcupine Tree have collaborated before, but Storm Corrosion is the product of their combined creativity. The music of the debut is ambient avant-folk with elements of jazz and symphonic music, and therefore rather different than the styles the duo have explored with their respective bands. Wilson concentrated on keyboards and arrangements, leaving Åkerfeldt to handle most of the guitar work. What sparse drumming appears on the album is there courtesy of Gavin Harrison (Porcupine Tree, O.S.I., The Tangent).

Tracklist:
01. Drag Ropes
02. Storm Corrosion
03. Hag
04. Happy
05. Lock Howl
06. Ljudet Innan

Total time: 47:53

Exact Audio Copy V1.0 beta 3 from 29. August 2011

EAC extraction logfile from 11. May 2012, 16:36

Storm Corrosion / Storm Corrosion [Roadrunner RR7645-2]

Used drive : HL-DT-STDVDRAM GH22NS90 Adapter: 3 ID: 0

Read mode : Secure
Utilize accurate stream : Yes
Defeat audio cache : Yes
Make use of C2 pointers : No

Read offset correction : 6
Overread into Lead-In and Lead-Out : No
Fill up missing offset samples with silence : Yes
Delete leading and trailing silent blocks : No
Null samples used in CRC calculations : Yes
Used interface : Native Win32 interface for Win NT & 2000

Used output format : User Defined Encoder
Selected bitrate : 1024 kBit/s
Quality : High
Add ID3 tag : No
Command line compressor : D:\Program Files (x86)\Exact Audio Copy\wavpack.exe
Additional command line options : -hlmx2 %source% %dest%


TOC of the extracted CD

Track | Start | Length | Start sector | End sector
––––––––––––––––––––––––––––-
1 | 0:00.00 | 9:52.04 | 0 | 44403
2 | 9:52.04 | 10:09.06 | 44404 | 90084
3 | 20:01.10 | 6:28.05 | 90085 | 119189
4 | 26:29.15 | 4:53.50 | 119190 | 141214
5 | 31:22.65 | 6:09.72 | 141215 | 168961
6 | 37:32.62 | 10:20.01 | 168962 | 215462


Range status and errors

Selected range

Filename D:\eac\Storm Corrosion\Storm Corrosion - Storm Corrosion [Roadrunner RR7645-2].wav

Peak level 99.5 %
Extraction speed 1.6 X
Range quality 100.0 %
Test CRC F1620848
Copy CRC F1620848
Copy OK

No errors occurred


AccurateRip summary

Track 1 accurately ripped (confidence 2) [FB731EA2] (AR v2)
Track 2 accurately ripped (confidence 2) [762FEB5D] (AR v2)
Track 3 accurately ripped (confidence 2) [FA389397] (AR v2)
Track 4 accurately ripped (confidence 2) [EAEA80FB] (AR v2)
Track 5 accurately ripped (confidence 2) [BED1071A] (AR v2)
Track 6 accurately ripped (confidence 2) [7270EC23] (AR v2)

All tracks accurately ripped

End of status report

–– CUETools DB Plugin V2.1.3

[CTDB TOCID: K5lGvSPqmASxnWwBmatVzrg3bdU-] found, Submit result: K5lGvSPqmASxnWwBmatVzrg3bdU- has been confirmed
[74580d70] (23/23) Accurately ripped


==== Log checksum FC78CE96226697892D7EF2BD5BE4A01183C29DB3842B15879283D445178A5E34 ====

[CUETools log; Date: 24.02.2017 20:09:43; Version: 2.1.4]
[CTDB TOCID: K5lGvSPqmASxnWwBmatVzrg3bdU-] found.
Track | CTDB Status
1 | (258/260) Accurately ripped
2 | (258/260) Accurately ripped
3 | (258/260) Accurately ripped
4 | (257/260) Accurately ripped
5 | (257/260) Accurately ripped
6 | (257/260) Accurately ripped
[AccurateRip ID: 000be437-003e02a8-4c0b3806] found.
Track [ CRC | V2 ] Status
01 [a575f842|fb731ea2] (028+165/263) Accurately ripped
02 [28727eb3|762feb5d] (028+168/265) Accurately ripped
03 [0ccb3532|fa389397] (028+164/262) Accurately ripped
04 [7ac50e0d|eaea80fb] (028+167/265) Accurately ripped
05 [606c4131|bed1071a] (028+167/264) Accurately ripped
06 [4edb8317|7270ec23] (028+167/265) Accurately ripped
Offsetted by -6:
01 [b4fb5543] (012/263) Accurately ripped
02 [0224d6b6] (011/265) Accurately ripped
03 [11e93063] (012/262) Accurately ripped
04 [4b5e637c] (012/265) Accurately ripped
05 [9257cf3f] (012/264) Accurately ripped
06 [c81acb9c] (012/265) Accurately ripped
Offsetted by -12:
01 [1415a1c4] (000/263) No match (V2 was not tested)
02 [6753c086] (000/265) No match (V2 was not tested)
03 [ced3c3ed] (000/262) No match (V2 was not tested)
04 [a87e1c3e] (000/265) No match (V2 was not tested)
05 [025969e9] (000/264) No match (V2 was not tested)
06 [41691426] (000/265) No match (V2 was not tested)

Track Peak [ CRC32 ] [W/O NULL] [ LOG ]
– 99,5 [F1620848] [4E8AF6C7] CRC32
01 99,1 [7EC79063] [CA23BC9F]
02 93,6 [53F07C3C] [AA760436]
03 98,9 [0CFBB40F] [E4FA2B28]
04 97,4 [2D085294] [3DF5F37E]
05 98,9 [2CB79965] [9FE9A4EB]
06 99,5 [FEB2C5BC] [E547233B]

Thanks to taurus66