Subcategories

Stryper - To Hell With The Devil (1986) [Japan 1st Press]

Posted By: Andi_Deris
Stryper - To Hell With The Devil (1986) [Japan 1st Press]

Stryper - To Hell With The Devil (1986) [Japan 1st Press]
EAC Rip | FLAC: Image+Cue+Log | 352 Mb | MP3 CBR 320 kbps | 100 Mb | Scans | Time: 40:54
Genre: Heavy Metal, Christian/Glam Metal | Label: Enigma Rec./CBS/Sony Inc. | Cat.№: 32DP 579

To Hell with the Devil is the Grammy Award nominated third release, and second full-length album, by the Christian metal and glam metal band Stryper, released in 1986. It was the first Christian metal album to achieve platinum status, selling over one million copies. In 2010, HM Magazine listed To Hell with the Devil No. 3 on its Top 100 Christian Rock Albums of All Time list stating that "when this album broke, it went multi-platinum, forever raising the ceiling of what heavy Christian music could do." Heaven's Metal fanzine ranked it No. 6 on its Top 100 Christian metal albums of all time list. "Honestly" was a huge hit for the band. A video for the song became a huge hit on MTV.

Stryper - To Hell With The Devil (1986) [Japan 1st Press]




Stryper - To Hell With The Devil (1986) [Japan 1st Press]


Track Listing

01. Abyss (To Hell With The Devil) (1:21)
02. To Hell With The Devil (4:07)
03. Calling On You (3:59)
04. Free (3:44)
05. Honestly (4:10)
06. The Way (3:39)
07. Sing-Along Song (4:21)
08. Holding On (4:16)
09. Rockin' The World (3:30)
10. All Of Me (3:11)
11. More Than A Man (4:36)

Produced by Stephan Galfas and Stryper

The Band

• Michael Sweet: lead vocals, guitar
• Robert Sweet: drums
• Oz Fox: lead guitar, background vocals
• Tim Gaines: bass, background vocals

• John Van Tongeren: keyboards

Stryper - To Hell With The Devil (1986) [Japan 1st Press]


Exact Audio Copy V0.99 prebeta 5 from 4. May 2009

Отчёт EAC об извлечении, выполненном 11. июня 2010, 20:19

Stryper / To Hell With The Devil [32DP-579]

Дисковод: MATSHITADVD-RAM UJ-850S Adapter: 0 ID: 0

Режим чтения : Достоверность
Использование точного потока : Да
Отключение кэша аудио : Да
Использование указателей C2 : Нет

Коррекция смещения при чтении : 102
Способность читать области Lead-in и Lead-out : Нет
Заполнение пропущенных сэмплов тишиной : Да
Удаление блоков с тишиной в начале и конце : Нет
При вычислениях CRC использовались нулевые сэмплы : Да
Интерфейс : Установленный внешний ASPI-интерфейс

Выходной формат : Пользовательский кодировщик
Выбранный битрейт : 128 kBit/s
Качество : Высокий
Добавление ID3-тэга : Нет
Утилита сжатия : C:\Program Files\Exact Audio Copy\Flac\flac.exe
Дополнительные параметры : -6 -V -T "artist=%a" -T "title=%t" -T "album=%g" -T "date=%y" -T "tracknumber=%n" -T "genre=%m" -T "comment=EAC 0.99beta5 / FLAC 1.1.0 q6" %s


TOC извлечённого CD

Трек | Старт | Длительность | Начальный сектор | Конечный сектор
––––––––––––––––––––––––––––––––––-
1 | 0:00.00 | 1:21.35 | 0 | 6109
2 | 1:21.35 | 4:07.60 | 6110 | 24694
3 | 5:29.20 | 3:59.42 | 24695 | 42661
4 | 9:28.62 | 3:44.13 | 42662 | 59474
5 | 13:13.00 | 4:10.25 | 59475 | 78249
6 | 17:23.25 | 3:39.62 | 78250 | 94736
7 | 21:03.12 | 4:21.38 | 94737 | 114349
8 | 25:24.50 | 4:16.07 | 114350 | 133556
9 | 29:40.57 | 3:30.18 | 133557 | 149324
10 | 33:11.00 | 3:11.25 | 149325 | 163674
11 | 36:22.25 | 4:36.62 | 163675 | 184436


Характеристики диапазона извлечения и сообщения об ошибках

Выбранный диапазон

Имя файла Y:\Музыка\Stryper\1986 To Hell With The Devil\Stryper - To Hell With The Devil [32DP-579].wav

Пиковый уровень 91.8 %
Качество диапазона 100.0 %
CRC копии FF0D5F94
Копирование… OK

Ошибок не произошло


AccurateRip: сводка

Трек 1 точное извлечение (доверие 1) [52A84517]
Трек 2 точное извлечение (доверие 1) [1FCFB5B9]
Трек 3 точное извлечение (доверие 1) [FE3F6F74]
Трек 4 точное извлечение (доверие 1) [43E769A6]
Трек 5 точное извлечение (доверие 1) [68539DA8]
Трек 6 точное извлечение (доверие 1) [634A2706]
Трек 7 точное извлечение (доверие 1) [38E679D6]
Трек 8 точное извлечение (доверие 1) [37DE4E68]
Трек 9 точное извлечение (доверие 1) [E8E63CF1]
Трек 10 точное извлечение (доверие 1) [7B20D993]
Трек 11 точное извлечение (доверие 1) [2C6B8F99]

Все треки извлечены точно

Конец отчёта


Many thanks to the original uploader: ikebana

See also:
Stryper 1984 The Yellow And Black Attack [Japan 1st Press]
Stryper 1985 Soldiers Under Command [Japan 1st Press]
Stryper 2015 Fallen [Japanese Ed.]

Holy Soldier 1990 Holy Soldier [Japanese Ed.]
Holy Soldier 1992 Last Train [Japanese Ed.]