Tags
Language
Tags
April 2024
Su Mo Tu We Th Fr Sa
31 1 2 3 4 5 6
7 8 9 10 11 12 13
14 15 16 17 18 19 20
21 22 23 24 25 26 27
28 29 30 1 2 3 4

Sue Foley - Change (2004)

Posted By: Designol
Sue Foley - Change (2004)

Sue Foley - Change (2004)
EAC | FLAC | Image (Cue&Log) ~ 320 Mb | Mp3 (CBR320) ~ 120 Mb | Scans included
Contemporary Blues, Roots Rock | Label: Ruf | # RUF 1096 | Time: 00:50:05

Change, her ninth recording, is a warm, intimate, acoustic recording. She was nominated for a 2003 WC Handy Award. Sue had toured with the likes of Tom Petty, Jonny Lang, Buddy Guy, Joe Cocker, BB King, & (the late) John Lee Hooker.

Being recognised as the leading lady on the Canadian blues scene is rather a big fish in a small pond scenario. The holder of that title, Sue Foley, also has a following in the States, however, dating back to her time of residence in Austin and steady work at the famed Antone’s club. Now Ontario-based, the singer-songwriter continues to work diligently at her craft. Her oft explosive guitar playing is what first garnered attention, but it is her vocals that have improved most over the years. Time has given her voice a real resonance, one reminiscent of the classic blues and jazz singers. Change is a live album (absolutely no overdubs) recorded last December in Toronto club, Hugh’s Room. The disc features some strong new Foley originals, as well as convincing covers of tunes by WC Handy (the classic "Careless Love”), Memphis Minnie (a key inspiration), and George Harrison ("Here Comes the Sun”). She is in fine form, her three backing musicians are right on the money, and the crowd noise is mercifully minimal.

Review by Kerry Doole, Exclaim.ca (Nov 01, 2004)

Sue Foley at Allmusic
Sue Foley Website
Sue Foley at Wiki

Tracklist:

01. Goin' Down The Road Again (3:07)
02. Hardworking Woman (3:44)
03. Doggie Treats (6:17)
04. Careless Love (6:05)
05. Change (2:51)
06. Bad Luck Woman (4:17)
07. Mournin' In The Morning (3:33)
08. Sugar In My Bowl (3:55)
09. Here Comes The Sun (3:02)
10. Me And My Chauffeur (3:46)
11. You Don't Have To Go (4:42)
12. Shake That Thing (4:46)


Exact Audio Copy V1.0 beta 3 from 29. August 2011

EAC extraction logfile from 3. August 2013, 21:04

Sue Foley / Change

Used drive : Optiarc DVD RW AD-7240S Adapter: 1 ID: 1

Read mode : Secure
Utilize accurate stream : Yes
Defeat audio cache : Yes
Make use of C2 pointers : No

Read offset correction : 48
Overread into Lead-In and Lead-Out : No
Fill up missing offset samples with silence : Yes
Delete leading and trailing silent blocks : No
Null samples used in CRC calculations : Yes
Used interface : Native Win32 interface for Win NT & 2000

Used output format : User Defined Encoder
Selected bitrate : 896 kBit/s
Quality : High
Add ID3 tag : No
Command line compressor : C:\Program Files\Exact Audio Copy\FLAC\FLAC.EXE
Additional command line options : -V -8 -T "Date=%year%" -T "Genre=%genre%" %source%


TOC of the extracted CD

Track | Start | Length | Start sector | End sector
––––––––––––––––––––––––––––-
1 | 0:00.00 | 3:07.00 | 0 | 14024
2 | 3:07.00 | 3:43.52 | 14025 | 30801
3 | 6:50.52 | 6:17.05 | 30802 | 59081
4 | 13:07.57 | 6:05.25 | 59082 | 86481
5 | 19:13.07 | 2:50.57 | 86482 | 99288
6 | 22:03.64 | 4:17.19 | 99289 | 118582
7 | 26:21.08 | 3:32.57 | 118583 | 134539
8 | 29:53.65 | 3:54.65 | 134540 | 152154
9 | 33:48.55 | 3:02.10 | 152155 | 165814
10 | 36:50.65 | 3:45.71 | 165815 | 182760
11 | 40:36.61 | 4:41.54 | 182761 | 203889
12 | 45:18.40 | 4:46.08 | 203890 | 225347


Range status and errors

Selected range

Filename D:\My Docs 2\My Music 2\Sue Foley - Change\Sue Foley - Change.wav

Peak level 98.1 %
Extraction speed 3.9 X
Range quality 100.0 %
Test CRC FD409223
Copy CRC FD409223
Copy OK

No errors occurred


AccurateRip summary

Track 1 accurately ripped (confidence 4) [532C9114] (AR v2)
Track 2 accurately ripped (confidence 4) [338762AE] (AR v2)
Track 3 accurately ripped (confidence 4) [EB687481] (AR v2)
Track 4 accurately ripped (confidence 4) [81A54AA6] (AR v2)
Track 5 accurately ripped (confidence 4) [76DFBE64] (AR v2)
Track 6 accurately ripped (confidence 4) [E235DE72] (AR v2)
Track 7 accurately ripped (confidence 4) [0024C5B7] (AR v2)
Track 8 accurately ripped (confidence 4) [643DB5FD] (AR v2)
Track 9 accurately ripped (confidence 3) [C051E379] (AR v2)
Track 10 accurately ripped (confidence 3) [0DB4D3AE] (AR v2)
Track 11 accurately ripped (confidence 4) [7E11EA96] (AR v2)
Track 12 accurately ripped (confidence 3) [1E2C3178] (AR v2)

All tracks accurately ripped

End of status report

==== Log checksum FE83880D0296FCEE8BD3E866ACDA6495E99C556353D45A48850BA981E91FBDF5 ====

foobar2000 1.2 / Dynamic Range Meter 1.1.1
log date: 2019-10-10 18:18:18

––––––––––––––––––––––––––––––––––––––––
Analyzed: Sue Foley / Change
––––––––––––––––––––––––––––––––––––––––

DR Peak RMS Duration Track
––––––––––––––––––––––––––––––––––––––––
DR13 -0.18 dB -15.94 dB 3:07 01-Goin' Down The Road Again
DR12 -1.38 dB -17.14 dB 3:44 02-Hardworking Woman
DR7 -0.17 dB -9.24 dB 6:17 03-Doggie Treats
DR8 -0.17 dB -9.59 dB 6:05 04-Careless Love
DR10 -0.17 dB -12.64 dB 2:51 05-Change
DR7 -0.17 dB -8.10 dB 4:17 06-Bad Luck Woman
DR10 -0.17 dB -12.89 dB 3:33 07-Mournin' In The Morning
DR8 -0.17 dB -10.26 dB 3:55 08-Sugar In My Bowl
DR11 -0.17 dB -14.45 dB 3:02 09-Here Comes The Sun
DR7 -0.17 dB -8.55 dB 3:46 10-Me And My Chauffeur
DR7 -0.16 dB -8.41 dB 4:42 11-You Don't Have To Go
DR7 -0.16 dB -8.49 dB 4:46 12-Shake That Thing
––––––––––––––––––––––––––––––––––––––––

Number of tracks: 12
Official DR value: DR9

Samplerate: 44100 Hz
Channels: 2
Bits per sample: 16
Bitrate: 876 kbps
Codec: FLAC
================================================================================

Sue Foley - Change (2004)

Sue Foley - Change (2004)

All thanks to original releaser - funny_horse

More interesting music in My Blog