Tags
Language
Tags

Supertramp - Breakfast in America (1979)

Posted By: v3122
Supertramp - Breakfast in America (1979)

Supertramp - Breakfast in America (1979)
EAC | Flac(Image) + Cue + Log & MP3 CBR 320Kbps
2010 | A&M 0600753304372 | ~ 321 or 110 Mb | Artwork -> 120 Mb
Progressive Rock | Remastered

With Breakfast in America, Supertramp had a genuine blockbuster hit, topping the charts for four weeks in the U.S. and selling millions of copies worldwide; by the 1990s, the album had sold over 18 million units across the world. Although their previous records had some popular success, they never even hinted at the massive sales of Breakfast in America. Then again, Supertramp's earlier records weren't as pop-oriented as Breakfast. The majority of the album consisted of tightly written, catchy, well-constructed pop songs, like the hits "The Logical Song," "Take the Long Way Home," and "Goodbye Stranger." Supertramp still had a tendency to indulge themselves occasionally, but Breakfast in America had very few weak moments. It was clearly their high-water mark.

by Stephen Thomas Erlewine, allmusic
Supertramp - Breakfast in America (1979):

Supertramp - Breakfast in America (1979)

Tracklist:

01. Gone Hollywood [0:05:20.74]
02. The Logical Song [0:04:11.19]
03. Goodbye Stranger [0:05:50.43]
04. Breakfast in America [0:02:39.26]
05. Oh Darling [0:04:02.31]
06. Take the Long Way Home [0:05:08.64]
07. Lord Is It Mine [0:04:10.14]
08. Just Another Nervous Wreck [0:04:25.51]
09. Casual Conversations [0:02:58.65]
10. Child of Vision [0:07:31.06]

Exact Audio Copy V1.0 beta 3 from 29. August 2011

EAC extraction logfile from 27. August 2017, 16:49

Supertramp / Breakfast in America

Used drive : PLEXTOR DVDR PX-L890SA Adapter: 3 ID: 1

Read mode : Secure
Utilize accurate stream : Yes
Defeat audio cache : Yes
Make use of C2 pointers : No

Read offset correction : 6
Overread into Lead-In and Lead-Out : No
Fill up missing offset samples with silence : Yes
Delete leading and trailing silent blocks : No
Null samples used in CRC calculations : Yes
Used interface : Native Win32 interface for Win NT & 2000

Used output format : User Defined Encoder
Selected bitrate : 768 kBit/s
Quality : High
Add ID3 tag : No
Command line compressor : C:\Program Files (x86)\Exact Audio Copy\Flac\flac.exe
Additional command line options : -V -8 -T "Date=%year%" -T "Genre=%genre%" %source%


TOC of the extracted CD

Track | Start | Length | Start sector | End sector
––––––––––––––––––––––––––––-
1 | 0:00.00 | 5:20.74 | 0 | 24073
2 | 5:20.74 | 4:11.19 | 24074 | 42917
3 | 9:32.18 | 5:50.43 | 42918 | 69210
4 | 15:22.61 | 2:39.26 | 69211 | 81161
5 | 18:02.12 | 4:02.31 | 81162 | 99342
6 | 22:04.43 | 5:08.64 | 99343 | 122506
7 | 27:13.32 | 4:10.14 | 122507 | 141270
8 | 31:23.46 | 4:25.51 | 141271 | 161196
9 | 35:49.22 | 2:58.65 | 161197 | 174611
10 | 38:48.12 | 7:31.06 | 174612 | 208442


Range status and errors

Selected range

Filename H:\MUSIC\1979. Supertramp - Breakfast In America (A&M 0600753304372, EU)\Supertramp - Breakfast in America.wav

Peak level 99.8 %
Extraction speed 8.4 X
Range quality 100.0 %
Test CRC A0A8F82B
Copy CRC A0A8F82B
Copy OK

No errors occurred


AccurateRip summary

Track 1 accurately ripped (confidence 200) [A8C81C88] (AR v2)
Track 2 accurately ripped (confidence 200) [495CBDA9] (AR v2)
Track 3 accurately ripped (confidence 200) [076695E6] (AR v2)
Track 4 accurately ripped (confidence 200) [7363ACDF] (AR v2)
Track 5 accurately ripped (confidence 200) [796D79C4] (AR v2)
Track 6 accurately ripped (confidence 200) [EB472327] (AR v2)
Track 7 accurately ripped (confidence 200) [40272844] (AR v2)
Track 8 accurately ripped (confidence 200) [F77C6775] (AR v2)
Track 9 accurately ripped (confidence 200) [8760BB69] (AR v2)
Track 10 accurately ripped (confidence 200) [F5D0A538] (AR v2)

All tracks accurately ripped

End of status report

==== Log checksum D7DC8DC000214D62E0944D4C3D5137A40B63AFA04B309DD37A4379FB570D115D ====


[CUETools log; Date: 18.07.2021 13:29:23; Version: 2.1.4]
[AccurateRip ID: 00112982-00884eea-770adb0a] found.
Track [ CRC | V2 ] Status
01 [90ec4750|a8c81c88] (067+200/310) Accurately ripped
02 [f0a48c27|495cbda9] (066+200/313) Accurately ripped
03 [09ae94ba|076695e6] (066+200/309) Accurately ripped
04 [b352c346|7363acdf] (066+200/313) Accurately ripped
05 [a14b3d1f|796d79c4] (066+200/313) Accurately ripped
06 [dcf85ab1|eb472327] (067+200/310) Accurately ripped
07 [bc3b8655|40272844] (067+200/310) Accurately ripped
08 [a3b39b3c|f77c6775] (067+200/310) Accurately ripped
09 [4530a1ab|8760bb69] (067+200/310) Accurately ripped
10 [58c6a470|f5d0a538] (066+200/312) Accurately ripped
Offsetted by -72:
01 [1e94c7c1] (000/310) No match (V2 was not tested)
02 [5888da96] (000/313) No match (V2 was not tested)
03 [1ea262cf] (000/309) No match (V2 was not tested)
04 [57f3f073] (000/313) No match (V2 was not tested)
05 [b1d5ba97] (000/313) No match (V2 was not tested)
06 [f1ea8a99] (000/310) No match (V2 was not tested)
07 [a08b549f] (000/310) No match (V2 was not tested)
08 [18774bcc] (000/310) No match (V2 was not tested)
09 [b901563b] (000/310) No match (V2 was not tested)
10 [e09e251c] (000/312) No match (V2 was not tested)
Offsetted by -66:
01 [6d525a5d] (000/310) No match (V2 was not tested)
02 [15ef7208] (000/313) No match (V2 was not tested)
03 [1f974455] (000/309) No match (V2 was not tested)
04 [9612b2cb] (000/313) No match (V2 was not tested)
05 [45eb9a9e] (000/313) No match (V2 was not tested)
06 [6c5546f0] (000/310) No match (V2 was not tested)
07 [3e92aaea] (000/310) No match (V2 was not tested)
08 [635a2741] (000/310) No match (V2 was not tested)
09 [556d2ca4] (000/310) No match (V2 was not tested)
10 [eaa30b69] (000/312) No match (V2 was not tested)
Offsetted by -24:
01 [f944f602] (000/310) No match (V2 was not tested)
02 [8f82d555] (000/313) No match (V2 was not tested)
03 [fa021510] (000/309) No match (V2 was not tested)
04 [07ff51d1] (000/313) No match (V2 was not tested)
05 [536e4b15] (000/313) No match (V2 was not tested)
06 [1c7b91f7] (000/310) No match (V2 was not tested)
07 [080c2966] (000/310) No match (V2 was not tested)
08 [72952962] (000/310) No match (V2 was not tested)
09 [3264c434] (000/310) No match (V2 was not tested)
10 [9df79ffb] (000/312) No match (V2 was not tested)
Offsetted by -12:
01 [61d51c08] (000/310) No match (V2 was not tested)
02 [39232ba3] (000/313) No match (V2 was not tested)
03 [0eb7f0f1] (000/309) No match (V2 was not tested)
04 [9c460164] (000/313) No match (V2 was not tested)
05 [090544ac] (000/313) No match (V2 was not tested)
06 [55ab1881] (000/310) No match (V2 was not tested)
07 [146aaa2a] (000/310) No match (V2 was not tested)
08 [0ab4e1fd] (000/310) No match (V2 was not tested)
09 [a3230435] (000/310) No match (V2 was not tested)
10 [f5209d02] (000/312) No match (V2 was not tested)

Track Peak [ CRC32 ] [W/O NULL] [ LOG ]
– 99,8 [A0A8F82B] [71286519] CRC32
01 99,8 [A3DBAE2E] [01359C26]
02 99,8 [092A072B] [D89CBFAF]
03 99,8 [9DC4610C] [41F87275]
04 99,8 [E62A8526] [62079F35]
05 99,8 [E5194F4B] [EC6E1AA8]
06 96,0 [32A768A3] [E1F45DF1]
07 99,8 [F4E93544] [4608236B]
08 98,3 [44E6B2BD] [6664769B]
09 78,4 [A61E657D] [1AF11404]
10 99,8 [6CA82936] [74E97820]


Supertramp - Breakfast in America (1979)

All thanks go to the original releaser

Supertramp in my Blog

Download Supertramp - Breakfast in America (1979):