Tags
Language
Tags

Sweet - Isolation Boulevard (2021)

Posted By: popsakov
Sweet - Isolation Boulevard (2021)

Sweet - Isolation Boulevard (2021)
EAC Rip | FLAC (Img) + Cue + Log ~ 346 Mb | MP3 CBR320 ~ 120 Mb
Full Scans | 00:46:13 | RAR 5% Recovery
RCA / Sony Music #88875129699 | Unofficial Release
Hard Rock / Classic Rock / Glam Rock

The Sweet is a British Rock Band with a pedigree of hits! "Fox on The Run," "Ballroom Blitz," "Action," "Love is Like Oxygen" and many more. The 1975 album "Desolation Boulevard" has truly stood the test of time keeping the band as relevant today as it was back then. Much to the excitement of fans worldwide, Sweet has released a new album "Isolation Boulevard" which is a reworking of many of the original tracks including the latest single "Set Me Free," written by original guitarist and producer Andy Scott. He has led the band since 1985 maintaining the high standards set more than 50 years ago when The Sweet first burst onto the music scene. "Isolation Boulevard" was recorded between lockdowns in September/October 2020. The new album harks back to The Sweet's golden era and the 1975 album "Desolation Boulevard." The latest single and video "Set Me Free" is taken from "Isolation Boulevard" and though it is one of the bands most covered songs, this is the first time The Sweet has released it as a single. Andy Scott, the songwriter and last man standing from the original band has produced a remarkable album given the circumstances that we face globally. There is a rumor circulating of a British Rock Invasion featuring The Sweet and a couple of other 70's Rock bands to tour North America very soon! "2021 - Sweet is back with a new album 'Isolation Boulevard' featuring the single 'Set Me Free' and a dynamic stage show celebrating 50 years of hits!" ~ Andy Scott

***************

Track List:

01. Fox On The Run [3:43]
02. Still Got The Rock [3:41]
03. Action [3:43]
04. Love Is Like Oxygen [4:25]
05. Hell Raiser [3:22]
06. The Six Teens [4:51]
07. Blockbuster [3:23]
08. Set Me Free [4:32]
09. Teenage Rampage [3:39]
10. Turn It Down [3:17]
11. New York Groove [3:45]
12. Ballroom Blitz [3:57]

Exact Audio Copy V1.3 from 2. September 2016

Отчёт EAC об извлечении, выполненном 28. апреля 2021, 12:37

Sweet / Isolation Boulevard

Дисковод: TSSTcorpCDDVDW SH-S222A Adapter: 1 ID: 0

Режим чтения : Достоверность
Использование точного потока : Да
Отключение кэша аудио : Да
Использование указателей C2 : Нет

Коррекция смещения при чтении : 6
Способность читать области Lead-in и Lead-out : Нет
Заполнение пропущенных сэмплов тишиной : Да
Удаление блоков с тишиной в начале и конце : Нет
При вычислениях CRC использовались нулевые сэмплы : Да
Интерфейс : Встроенный Win32-интерфейс для Win NT/2000

Выходной формат : Пользовательский кодировщик
Выбранный битрейт : 896 kBit/s
Качество : Высокий
Добавление ID3-тега : Нет
Утилита сжатия : C:\Program Files\Exact Audio Copy\FLAC\FLAC.EXE
Дополнительные параметры : -6 -V -T "ARTIST=%artist%" -T "TITLE=%title%" -T "ALBUM=%albumtitle%" -T "DATE=%year%" -T "TRACKNUMBER=%tracknr%" -T "GENRE=%genre%" -T "COMMENT=%comment%" -T "BAND=%albuminterpret%" -T "ALBUMARTIST=%albuminterpret%" -T "COMPOSER=%composer%" %haslyrics%–tag-from-file=LYRICS="%lyricsfile%"%haslyrics% -T "DISCNUMBER=%cdnumber%" -T "TOTALDISCS=%totalcds%" -T "TOTALTRACKS=%numtracks%" %hascover%–picture="%coverfile%"%hascover% %source% -o %dest%


TOC извлечённого CD

Трек | Старт | Длительность | Начальный сектор | Конечный сектор
––––––––––––––––––––––––––––––––––-
1 | 0:00.00 | 3:42.16 | 0 | 16665
2 | 3:42.16 | 3:40.74 | 16666 | 33239
3 | 7:23.15 | 3:42.71 | 33240 | 49960
4 | 11:06.11 | 4:24.50 | 49961 | 69810
5 | 15:30.61 | 3:21.61 | 69811 | 84946
6 | 18:52.47 | 4:50.12 | 84947 | 106708
7 | 23:42.59 | 3:22.41 | 106709 | 121899
8 | 27:05.25 | 4:31.19 | 121900 | 142243
9 | 31:36.44 | 3:38.44 | 142244 | 158637
10 | 35:15.13 | 3:16.19 | 158638 | 173356
11 | 38:31.32 | 3:44.11 | 173357 | 190167
12 | 42:15.43 | 3:56.65 | 190168 | 207932


Характеристики диапазона извлечения и сообщения об ошибках

Выбранный диапазон

Имя файла D:\Music\Sweet - Isolation Boulevard.wav

Копирование прервано

Конец отчёта

==== Контрольная сумма отчёта EB4AAF7A174A68080B1BAD91CEFE256C41D768676D7243B3989ADD790F7592D6 ====

––––––––––––––––––––––––––––––

Exact Audio Copy V1.3 from 2. September 2016

Отчёт EAC об извлечении, выполненном 28. апреля 2021, 12:42

Sweet / Isolation Boulevard

Дисковод: TSSTcorpCDDVDW SH-S222A Adapter: 1 ID: 0

Режим чтения : Достоверность
Использование точного потока : Да
Отключение кэша аудио : Да
Использование указателей C2 : Нет

Коррекция смещения при чтении : 6
Способность читать области Lead-in и Lead-out : Нет
Заполнение пропущенных сэмплов тишиной : Да
Удаление блоков с тишиной в начале и конце : Нет
При вычислениях CRC использовались нулевые сэмплы : Да
Интерфейс : Встроенный Win32-интерфейс для Win NT/2000

Выходной формат : Пользовательский кодировщик
Выбранный битрейт : 896 kBit/s
Качество : Высокий
Добавление ID3-тега : Нет
Утилита сжатия : C:\Program Files\Exact Audio Copy\FLAC\FLAC.EXE
Дополнительные параметры : -6 -V -T "ARTIST=%artist%" -T "TITLE=%title%" -T "ALBUM=%albumtitle%" -T "DATE=%year%" -T "TRACKNUMBER=%tracknr%" -T "GENRE=%genre%" -T "COMMENT=%comment%" -T "BAND=%albuminterpret%" -T "ALBUMARTIST=%albuminterpret%" -T "COMPOSER=%composer%" %haslyrics%–tag-from-file=LYRICS="%lyricsfile%"%haslyrics% -T "DISCNUMBER=%cdnumber%" -T "TOTALDISCS=%totalcds%" -T "TOTALTRACKS=%numtracks%" %hascover%–picture="%coverfile%"%hascover% %source% -o %dest%


TOC извлечённого CD

Трек | Старт | Длительность | Начальный сектор | Конечный сектор
––––––––––––––––––––––––––––––––––-
1 | 0:00.00 | 3:42.16 | 0 | 16665
2 | 3:42.16 | 3:40.74 | 16666 | 33239
3 | 7:23.15 | 3:42.71 | 33240 | 49960
4 | 11:06.11 | 4:24.50 | 49961 | 69810
5 | 15:30.61 | 3:21.61 | 69811 | 84946
6 | 18:52.47 | 4:50.12 | 84947 | 106708
7 | 23:42.59 | 3:22.41 | 106709 | 121899
8 | 27:05.25 | 4:31.19 | 121900 | 142243
9 | 31:36.44 | 3:38.44 | 142244 | 158637
10 | 35:15.13 | 3:16.19 | 158638 | 173356
11 | 38:31.32 | 3:44.11 | 173357 | 190167
12 | 42:15.43 | 3:56.65 | 190168 | 207932


Характеристики диапазона извлечения и сообщения об ошибках

Выбранный диапазон

Имя файла D:\Music\Sweet - Isolation Boulevard.wav

Копирование прервано

Конец отчёта

==== Контрольная сумма отчёта BC9510ECE7EC7D46EA88E65F8A0D80684313FB3AC6D17B2BD7FE86AA64E1AE18 ====

––––––––––––––––––––––––––––––

Exact Audio Copy V1.3 from 2. September 2016

Отчёт EAC об извлечении, выполненном 29. апреля 2021, 10:26

Sweet / Isolation Boulevard

Дисковод: HL-DT-STDVD-RAM GSA-H54N Adapter: 1 ID: 0

Режим чтения : Достоверность
Использование точного потока : Да
Отключение кэша аудио : Да
Использование указателей C2 : Нет

Коррекция смещения при чтении : 102
Способность читать области Lead-in и Lead-out : Нет
Заполнение пропущенных сэмплов тишиной : Да
Удаление блоков с тишиной в начале и конце : Нет
При вычислениях CRC использовались нулевые сэмплы : Да
Интерфейс : Встроенный Win32-интерфейс для Win NT/2000

Выходной формат : Пользовательский кодировщик
Выбранный битрейт : 896 kBit/s
Качество : Высокий
Добавление ID3-тега : Нет
Утилита сжатия : C:\Program Files\Exact Audio Copy\FLAC\FLAC.EXE
Дополнительные параметры : -6 -V -T "ARTIST=%artist%" -T "TITLE=%title%" -T "ALBUM=%albumtitle%" -T "DATE=%year%" -T "TRACKNUMBER=%tracknr%" -T "GENRE=%genre%" -T "COMMENT=%comment%" -T "BAND=%albuminterpret%" -T "ALBUMARTIST=%albuminterpret%" -T "COMPOSER=%composer%" %haslyrics%–tag-from-file=LYRICS="%lyricsfile%"%haslyrics% -T "DISCNUMBER=%cdnumber%" -T "TOTALDISCS=%totalcds%" -T "TOTALTRACKS=%numtracks%" %hascover%–picture="%coverfile%"%hascover% %source% -o %dest%


TOC извлечённого CD

Трек | Старт | Длительность | Начальный сектор | Конечный сектор
––––––––––––––––––––––––––––––––––-
1 | 0:00.00 | 3:42.16 | 0 | 16665
2 | 3:42.16 | 3:40.74 | 16666 | 33239
3 | 7:23.15 | 3:42.71 | 33240 | 49960
4 | 11:06.11 | 4:24.50 | 49961 | 69810
5 | 15:30.61 | 3:21.61 | 69811 | 84946
6 | 18:52.47 | 4:50.12 | 84947 | 106708
7 | 23:42.59 | 3:22.41 | 106709 | 121899
8 | 27:05.25 | 4:31.19 | 121900 | 142243
9 | 31:36.44 | 3:38.44 | 142244 | 158637
10 | 35:15.13 | 3:16.19 | 158638 | 173356
11 | 38:31.32 | 3:44.11 | 173357 | 190167
12 | 42:15.43 | 3:56.65 | 190168 | 207932


Характеристики диапазона извлечения и сообщения об ошибках

Выбранный диапазон

Имя файла D:\Music\Sweet - Isolation Boulevard.wav

Пиковый уровень 100.0 %
Скорость извлечения 2.7 X
Качество диапазона 100.0 %
CRC теста 3C57D172
CRC копии 3C57D172
Копирование… OK

Ошибок не произошло


AccurateRip: сводка

Трек 1 отсутствует в базе данных
Трек 2 отсутствует в базе данных
Трек 3 отсутствует в базе данных
Трек 4 отсутствует в базе данных
Трек 5 отсутствует в базе данных
Трек 6 отсутствует в базе данных
Трек 7 отсутствует в базе данных
Трек 8 отсутствует в базе данных
Трек 9 отсутствует в базе данных
Трек 10 отсутствует в базе данных
Трек 11 отсутствует в базе данных
Трек 12 отсутствует в базе данных

Ни одного трека нет в базе AccurateRip

Конец отчёта

–– CUETools DB Plugin V2.1.6

[CTDB TOCID: mHc9.kfbPkeCZPz8n2YHJTLau8c-] found
Submit result: mHc9.kfbPkeCZPz8n2YHJTLau8c- has been confirmed
Track | CTDB Status
1 | (1/1) Accurately ripped
2 | (1/1) Accurately ripped
3 | (1/1) Accurately ripped
4 | (1/1) Accurately ripped
5 | (1/1) Accurately ripped
6 | (1/1) Accurately ripped
7 | (1/1) Accurately ripped
8 | (1/1) Accurately ripped
9 | (1/1) Accurately ripped
10 | (1/1) Accurately ripped
11 | (1/1) Accurately ripped
12 | (1/1) Accurately ripped


==== Контрольная сумма отчёта F95C3103EE42E9AF7111836956576DB7C86D82E5631199183AFAA1E05765A173 ====

All thanks go to crossovernickk

>>> Sweet in my Blog <<<

DOWNLOAD: