Subcategories
Tags
Language
Tags

Swingrowers - Hybrid (2021) {Japanese Edition With Bonus Tracks}

Posted By: popsakov
Swingrowers - Hybrid (2021) {Japanese Edition With Bonus Tracks}

Swingrowers - Hybrid (2021) {Japanese Edition With Bonus Tracks}
EAC Rip | FLAC (Img) + Cue + Log ~ 280 Mb | MP3 CBR320 ~ 101 Mb
Full Scans ~ 77 Mb | 00:41:46 | RAR 5% Recovery
Freshly Squeezed #R-2120613MT / Rambling Records #RBCP-3393
Electro Swing / Nu Jazz

Italy’s finest export SWINGROWERS are back with their fourth album Hybrid. Swingrowers are an accomplished four-piece band from Palermo, Sicily. Made up of Loredana Grimaudo (singer, songwriter), Roberto Costa aka Pisk (DJ, producer), Alessio Costagliola (guitarist, composer), and Ciro Pusateri (saxophonist, composer). The band fuse a multitude of genres from Jazz to hip-hop, electronica to gypsy-swing, and have seen (or heard!) their sound has steadily evolved since their debut into unique electro swing and vintage-inspired pop. They are noted for their irreverent style, which blends the freshness of dance music, with the warm influences of swing from the 20s to 50s. With three albums out, a strong set of catchy singles, and a powerful live show, the band is one of the most long lived and sought after in the electro-swing and retro scene. They are signed to Freshly Squeezed Music – a Brighton (UK) based independent record label and music publisher. After touring North America, Canada, Asia, Europe and Japan (including two sold out headline shows at Blue Note Tokyo) with the likes of Caravan Palace and Parov Stelar, the band are relentless with a hectic live schedule whilst working in the studio simultaneously.
Track List:

01. In The Blink Of An Eye (Intro) [1:50]
02. Hybrid [3:03]
03. Follow The Stars [3:20]
04. Seven Million Faces [3:40]
05. Precipitiamo [3:23]
06. Dreamland (Say Goodbye Bye Bye) [3:28]
07. Wannabe [3:01]
08. Invisible Army [3:14]
09. I Don't Know (How To Love) [3:39]
10. Rose [3:36]
11. Hybrid - Instrumental [Bonus Track] [3:03]
12. Wannabe - Instrumental [Bonus Track] [3:01]
13. Rose - Instrumental [Bonus Track] [3:35]

Exact Audio Copy V1.3 from 2. September 2016

Отчёт EAC об извлечении, выполненном 1. апреля 2021, 22:33

Swingrowers / Hybrid

Дисковод: PLEXTOR DVDR PX-755A Adapter: 1 ID: 1

Режим чтения : Достоверность
Использование точного потока : Да
Отключение кэша аудио : Да
Использование указателей C2 : Нет

Коррекция смещения при чтении : 30
Способность читать области Lead-in и Lead-out : Нет
Заполнение пропущенных сэмплов тишиной : Да
Удаление блоков с тишиной в начале и конце : Нет
При вычислениях CRC использовались нулевые сэмплы : Да
Интерфейс : Встроенный Win32-интерфейс для Win NT/2000

Выходной формат : Пользовательский кодировщик
Выбранный битрейт : 128 kBit/s
Качество : Высокий
Добавление ID3-тега : Нет
Утилита сжатия : C:\Program Files (x86)\Exact Audio Copy\Flac\flac.exe
Дополнительные параметры : -V -8 -T "Date=%year%" -T "Genre=%genre%" %source%


TOC извлечённого CD

Трек | Старт | Длительность | Начальный сектор | Конечный сектор
––––––––––––––––––––––––––––––––––-
1 | 0:00.00 | 1:49.06 | 0 | 8180
2 | 1:49.06 | 3:02.34 | 8181 | 21864
3 | 4:51.40 | 3:19.73 | 21865 | 36862
4 | 8:11.38 | 3:39.32 | 36863 | 53319
5 | 11:50.70 | 3:22.72 | 53320 | 68541
6 | 15:13.67 | 3:27.12 | 68542 | 84078
7 | 18:41.04 | 3:00.22 | 84079 | 97600
8 | 21:41.26 | 3:13.02 | 97601 | 112077
9 | 24:54.28 | 3:38.53 | 112078 | 128480
10 | 28:33.06 | 3:35.12 | 128481 | 144617
11 | 32:08.18 | 3:02.34 | 144618 | 158301
12 | 35:10.52 | 3:00.22 | 158302 | 171823
13 | 38:10.74 | 3:34.12 | 171824 | 187885


Характеристики диапазона извлечения и сообщения об ошибках

Выбранный диапазон

Имя файла D:\РАЗДАЧА\Swingrowers - Hybrid - 2021 [Japan Bonus Track]\Swingrowers - Hybrid.wav

Пиковый уровень 89.9 %
Скорость извлечения 7.7 X
Качество диапазона 100.0 %
CRC теста DA746E70
CRC копии DA746E70
Копирование… OK

Ошибок не произошло


AccurateRip: сводка

Трек 1 отсутствует в базе данных
Трек 2 отсутствует в базе данных
Трек 3 отсутствует в базе данных
Трек 4 отсутствует в базе данных
Трек 5 отсутствует в базе данных
Трек 6 отсутствует в базе данных
Трек 7 отсутствует в базе данных
Трек 8 отсутствует в базе данных
Трек 9 отсутствует в базе данных
Трек 10 отсутствует в базе данных
Трек 11 отсутствует в базе данных
Трек 12 отсутствует в базе данных
Трек 13 отсутствует в базе данных

Ни одного трека нет в базе AccurateRip

Конец отчёта

–– CUETools DB Plugin V2.1.6

[CTDB TOCID: kBu1GCm4t_m6VXpz2Q_UFKM6yT4-] database access error: Сервер нарушил протокол. Section=ResponseStatusLine


==== Контрольная сумма отчёта 943A5282282AF17FB2896A284CDE248E554C9A9BCEE4347C65D7415EC85B7E98 ====

All thanks go to pishin

>>> Swingrowers in my Blog <<<

DOWNLOAD: