Subcategories

Sylvester - All I Need (Do Ya Wanna Funk) (1982) [2019, Remastered]

Posted By: v3122
Sylvester - All I Need (Do Ya Wanna Funk) (1982) [2019, Remastered]

Sylvester - All I Need (Do Ya Wanna Funk) (1982)
EAC | Flac(Image) + Cue + Log & MP3 CBR 320Kbps
Unidisc/Megatone Records, SPLK-7054 | RU | ~ 461 or 153 Mb | Artwork(jpg) -> 31 Mb
Pop, Electro, Hi NRG, Funk, Disco

Sylvester was on the downside of his career in the mid-'80s. He still had the glorious tones and booming voice, but was now floundering, with his high-energy brand of disco out of fashion. Sylvester tried to fashion a comeback by mixing in lightweight pop arrangements and production while singing his old fashion. The results were not encouraging, but that wasn't because the songs lacked style; they were just the wrong things for the time.

by Ron Wynn, allmusic
Sylvester - All I Need (Do Ya Wanna Funk) (1982):

Sylvester - All I Need (Do Ya Wanna Funk) (1982) [2019, Remastered]

Tracklist:

01. All I Need (04:29)
02. Be With You (06:40)
03. Do Ya Wanna Funk (03:32)
04. Hard Up (04:41)
05. Don't Stop (06:51)
06. Tell Me (04:50)
07. Won't You Let Me Love You (06:48)
08. Be With You (Remix) (08:34)
09. Don't Stop (Remix) (08:27)
10. Do Ya Wanna Funk (Remix) (06:22)
11. Do Ya Wanna Funk (Radio Edit) (03:32)

Exact Audio Copy V1.3 from 2. September 2016

Отчёт EAC об извлечении, выполненном 25. августа 2019, 20:30

Sylvester / All I Need - Do Ya Wanna Funk (2019)

Дисковод: PLEXTOR DVDR PX-712A Adapter: 3 ID: 1

Режим чтения : Достоверность
Использование точного потока : Да
Отключение кэша аудио : Да
Использование указателей C2 : Нет

Коррекция смещения при чтении : 30
Способность читать области Lead-in и Lead-out : Нет
Заполнение пропущенных сэмплов тишиной : Да
Удаление блоков с тишиной в начале и конце : Нет
При вычислениях CRC использовались нулевые сэмплы : Да
Интерфейс : Установленный внешний ASPI-интерфейс

Выходной формат : Пользовательский кодировщик
Выбранный битрейт : 128 kBit/s
Качество : Высокий
Добавление ID3-тега : Нет
Утилита сжатия : C:\Program Files\Exact Audio Copy\FLAC\FLAC.EXE
Дополнительные параметры : -V -8 -T "Genre=%genre%" -T "Artist=%artist%" -T "Title=%title%" -T "Album=%albumtitle%" -T "Date=%year%" -T "Tracknumber=%tracknr%" -T "Comment=%comment%" %source%


TOC извлечённого CD

Трек | Старт | Длительность | Начальный сектор | Конечный сектор
––––––––––––––––––––––––––––––––––-
1 | 0:00.00 | 4:29.62 | 0 | 20236
2 | 4:29.62 | 6:40.00 | 20237 | 50236
3 | 11:09.62 | 3:32.00 | 50237 | 66136
4 | 14:41.62 | 4:41.22 | 66137 | 87233
5 | 19:23.09 | 6:51.30 | 87234 | 118088
6 | 26:14.39 | 4:50.45 | 118089 | 139883
7 | 31:05.09 | 6:48.40 | 139884 | 170523
8 | 37:53.49 | 8:34.68 | 170524 | 209141
9 | 46:28.42 | 8:27.63 | 209142 | 247229
10 | 54:56.30 | 6:22.60 | 247230 | 275939
11 | 61:19.15 | 3:32.35 | 275940 | 291874


Характеристики диапазона извлечения и сообщения об ошибках

Выбранный диапазон

Имя файла I:\MOI_RAZDACI\Sylvester - All I Need (2019)\Sylvester - All I Need - Do Ya Wanna Funk (2019)\Sylvester - All I Need - Do Ya Wanna Funk (2019).wav

Пиковый уровень 100.0 %
Скорость извлечения 10.4 X
Качество диапазона 99.9 %
CRC теста DF63FD7F
CRC копии DF63FD7F
Копирование… OK

Ошибок не произошло


AccurateRip: сводка

Трек 1 отсутствует в базе данных
Трек 2 отсутствует в базе данных
Трек 3 отсутствует в базе данных
Трек 4 отсутствует в базе данных
Трек 5 отсутствует в базе данных
Трек 6 отсутствует в базе данных
Трек 7 отсутствует в базе данных
Трек 8 отсутствует в базе данных
Трек 9 отсутствует в базе данных
Трек 10 отсутствует в базе данных
Трек 11 отсутствует в базе данных

Ни одного трека нет в базе AccurateRip

Конец отчёта

–– CUETools DB Plugin V2.1.6

[CTDB TOCID: UIxL6wEcTIoey8dAaO2K..OBrxA-] disk not present in database
Submit result: UIxL6wEcTIoey8dAaO2K..OBrxA- has been uploaded


==== Контрольная сумма отчёта 467958A6197FA2421B3222D5683911F7662D65385C5E05A869EE28A2F5932BC0 ====


[CUETools log; Date: 30.08.2019 18:26:54; Version: 2.1.4]
[AccurateRip ID: 001994f1-00e2620c-ad0f330b] disk not present in database.

Track Peak [ CRC32 ] [W/O NULL] [ LOG ]
– 100,0 [DF63FD7F] [1DBD2FD7] CRC32
01 90,0 [6F049938] [F2F2F018]
02 90,0 [5A9DED0A] [F8A90E01]
03 92,2 [BAC4DD53] [6E4C04D3]
04 90,0 [93A99D24] [1578D5D0]
05 91,2 [4F106F17] [A5152C1A]
06 95,0 [DF204A7A] [4D96487A]
07 92,0 [402F3C6D] [240945B7]
08 100,0 [E0D24F57] [B91EBF11]
09 100,0 [906E7906] [26BCA354]
10 100,0 [F4113A8E] [E9B52280]
11 100,0 [2B347253] [331A6F01]


Sylvester - All I Need (Do Ya Wanna Funk) (1982) [2019, Remastered]

All thanks go to the original releaser

Download Sylvester - All I Need (Do Ya Wanna Funk) (1982):