Subcategories
Tags
Language
Tags

T - Epistrophobia (2016)

Posted By: popsakov
T - Epistrophobia (2016)

T - Epistrophobia (2016)
EAC Rip | FLAC (Img) + Cue + Log ~ 499 Mb | MP3 CBR320 ~ 188 Mb
Full Scans ~ 54 Mb | 01:18:08 | RAR 5% Recovery
Progressive Rock | Progressive Promotion Records #PPRCD044

Epistrophobia takes off where Fragmentropy landed: Chapters 4 to 6 are offered here. t dives in even deeper into the abysses and fears of the individual admidst populism, neocapitalism, digital anonymity… in a nutshell: in modern life. This album sounds like a synopsis of all t albums so far and surely is his most balanced and most melodic approach so far – which doesn’t mean that the manifold versality for which t has always been known or the sparkling affluence of ideas has ceased just one bit. Certainly his best work so far!

***************

T - Epistrophobia (2016)

Track List:

01. Chapter Four - A Poet's Downfall: In Abeyance [13:45]
02. Chapter Four - A Poet's Downfall: The Dark Beyond Our Fears [12:01]
03. Chapter Five - Contingencies: What If [5:51]
04. Chapter Five - Contingencies: What If Not [12:22]
05. Chapter Five - Contingencies: Forgiven [7:43]
06. Chapter Six - The Place Beyond The Skies: A Mask Behind A Mask [12:08]
07. Chapter Six - The Place Beyond The Skies: Epistrophe [14:16]

Personnel:

Thomas Thielen - all instruments & vocals

Exact Audio Copy V1.3 from 2. September 2016

EAC extraction logfile from 14. January 2017, 18:24

T / Epistrophobia

Used drive : ASUS DRW-24B1LT Adapter: 1 ID: 2

Read mode : Secure
Utilize accurate stream : Yes
Defeat audio cache : Yes
Make use of C2 pointers : No

Read offset correction : 6
Overread into Lead-In and Lead-Out : No
Fill up missing offset samples with silence : Yes
Delete leading and trailing silent blocks : No
Null samples used in CRC calculations : Yes
Used interface : Native Win32 interface for Win NT & 2000

Used output format : User Defined Encoder
Selected bitrate : 1024 kBit/s
Quality : High
Add ID3 tag : Yes
Command line compressor : C:\Program Files (x86)\FLAC_1.3.1\win64\flac.exe
Additional command line options : -6 -V -T "ARTIST=%artist%" -T "TITLE=%title%" -T "ALBUM=%albumtitle%" -T "DATE=%year%" -T "TRACKNUMBER=%tracknr%" -T "GENRE=%genre%" -T "COMMENT=ripped by wurensh for rutracker.org" %source% -o %dest%


TOC of the extracted CD

Track | Start | Length | Start sector | End sector
––––––––––––––––––––––––––––-
1 | 0:00.00 | 13:45.35 | 0 | 61909
2 | 13:45.35 | 12:01.32 | 61910 | 116016
3 | 25:46.67 | 5:51.11 | 116017 | 142352
4 | 31:38.03 | 12:21.52 | 142353 | 197979
5 | 43:59.55 | 7:43.20 | 197980 | 232724
6 | 51:43.00 | 12:08.21 | 232725 | 287345
7 | 63:51.21 | 14:16.30 | 287346 | 351575


Range status and errors

Selected range

Filename Y:\EAC\wurensh\T\T - Epistrophobia.wav

Peak level 100.0 %
Extraction speed 10.0 X
Range quality 100.0 %
Test CRC F08FBE93
Copy CRC F08FBE93
Copy OK

No errors occurred


AccurateRip summary

Track 1 not present in database
Track 2 not present in database
Track 3 not present in database
Track 4 not present in database
Track 5 not present in database
Track 6 not present in database
Track 7 not present in database

None of the tracks are present in the AccurateRip database

End of status report

–– CUETools DB Plugin V2.1.6

[CTDB TOCID: 7UwIRi4HZaYgN3IM45NIvNoUjOo-] found
Submit result: already submitted
Track | CTDB Status
1 | (3/3) Accurately ripped
2 | (3/3) Accurately ripped
3 | (3/3) Accurately ripped
4 | (3/3) Accurately ripped
5 | (3/3) Accurately ripped
6 | (3/3) Accurately ripped
7 | (3/3) Accurately ripped


==== Log checksum F7725AF9718A456F174C8C84A16F88D9B40E99350B16E4F59313F809457EC012 ====

T - Epistrophobia (2016)


All thanks go to wurensh

>>> My Blog <<<

DOWNLOAD: