Subcategories
Tags
Language
Tags

The Offspring - s/t (1989) {1995 Nitro/Epitaph}

Posted By: TestTickles
The Offspring - s/t (1989) {1995 Nitro/Epitaph}

The Offspring - s/t (1989) {1995 Nitro/Epitaph}America}
EAC Rip | FLAC with log | scans | 224 mb
MP3 CBR 320kbps | RAR | 74 mb
Genre: indie rock, punk rock

This is the 1989 debut album by Garden Grove, California punk rock band The Offspring. When they released this, it was very difficult for them to sell a lot of copies but when they became more well known to the public, they were able to reissue this on CD in 1995 on Nitro Records via Epitaph.

The Offspring - s/t (1989) {1995 Nitro/Epitaph}

01. Jennifer Lost The War (2:35)
02. Elders (2:11)
03. Out On Patrol (2:33)
04. Crossroads (2:49)
05. Demons (3:10)
06. Beheaded (2:52)
07. Tehran (3:07)
08. A Thousand Days (2:11)
09. Blackball (3:24)
10. I'll Be Waiting (3:12)
11. Kill The President (3:22)

EAC extraction logfile from 09. January 2008, 22:26 for CD
The Offspring / s-t

Used drive : _NEC DVD_RW ND-3550A Adapter: 1 ID: 0
Read mode : Secure with NO C2, accurate stream, disable cache
Read offset correction : 48
Overread into Lead-In and Lead-Out : No

Used output format : C:\Program Files (x86)\FLAC\flac.exe (User Defined Encoder)
128 kBit/s
Additional command line options : -V -8 -T "artist=%a" -T "title=%t" -T "album=%g" -T "date=%y" -T "tracknumber=%n" -T "genre=%m" %s

Other options :
Fill up missing offset samples with silence : Yes
Delete leading and trailing silent blocks : No
Native Win32 interface for Win NT & 2000

Track 1

Filename C:\cuntfist\FLAC\The Offspring - s-t (1989) [FLAC] {1995 Nitro, Epitaph}\01 - Jennifer Lost The War.wav

Pre-gap length 0:00:02.00

Peak level 100.0 %
Track quality 100.0 %
Test CRC C06CEB84
Copy CRC C06CEB84
Copy OK

Track 2

Filename C:\cuntfist\FLAC\The Offspring - s-t (1989) [FLAC] {1995 Nitro, Epitaph}\02 - Elders.wav

Pre-gap length 0:00:00.13

Peak level 100.0 %
Track quality 100.0 %
Test CRC 71E34366
Copy CRC 71E34366
Copy OK

Track 3

Filename C:\cuntfist\FLAC\The Offspring - s-t (1989) [FLAC] {1995 Nitro, Epitaph}\03 - Out On Patrol.wav

Pre-gap length 0:00:00.13

Peak level 100.0 %
Track quality 99.5 %
Test CRC CD206520
Copy CRC CD206520
Copy OK

Track 4

Filename C:\cuntfist\FLAC\The Offspring - s-t (1989) [FLAC] {1995 Nitro, Epitaph}\04 - Crossroads.wav

Peak level 100.0 %
Track quality 100.0 %
Test CRC 86549DA2
Copy CRC 86549DA2
Copy OK

Track 5

Filename C:\cuntfist\FLAC\The Offspring - s-t (1989) [FLAC] {1995 Nitro, Epitaph}\05 - Demons.wav

Pre-gap length 0:00:01.01
Peak level 100.0 %
Track quality 99.9 %
Test CRC 06F69228
Copy CRC 06F69228
Copy OK

Track 6

Filename C:\cuntfist\FLAC\The Offspring - s-t (1989) [FLAC] {1995 Nitro, Epitaph}\06 - Beheaded.wav

Pre-gap length 0:00:00.05
Peak level 100.0 %
Track quality 100.0 %
Test CRC 07FBC3A4
Copy CRC 07FBC3A4
Copy OK

Track 7

Filename C:\cuntfist\FLAC\The Offspring - s-t (1989) [FLAC] {1995 Nitro, Epitaph}\07 - Tehran.wav

Pre-gap length 0:00:14.84
Peak level 100.0 %
Track quality 100.0 %
Test CRC 3B03251A
Copy CRC 3B03251A
Copy OK

Track 8

Filename C:\cuntfist\FLAC\The Offspring - s-t (1989) [FLAC] {1995 Nitro, Epitaph}\08 - A Thousand Days.wav

Peak level 100.0 %
Track quality 100.0 %
Test CRC A1F7CE77
Copy CRC A1F7CE77
Copy OK

Track 9

Filename C:\cuntfist\FLAC\The Offspring - s-t (1989) [FLAC] {1995 Nitro, Epitaph}\09 - Blackball.wav

Pre-gap length 0:00:00.13
Peak level 100.0 %
Track quality 99.9 %
Test CRC 254F3559
Copy CRC 254F3559
Copy OK

Track 10

Filename C:\cuntfist\FLAC\The Offspring - s-t (1989) [FLAC] {1995 Nitro, Epitaph}\10 - I'll Be Waiting.wav

Peak level 100.0 %
Track quality 100.0 %
Test CRC 85960D30
Copy CRC 85960D30
Copy OK

Track 11

Filename C:\cuntfist\FLAC\The Offspring - s-t (1989) [FLAC] {1995 Nitro, Epitaph}\11 - Kill The President.wav

Peak level 100.0 %
Track quality 100.0 %
Test CRC 8F349950
Copy CRC 8F349950
Copy OK

No errors occured

End of status report


The Offspring - s/t (1989) {1995 Nitro/Epitaph}


Thank you to the original uploader.