Tags
Language
Tags

VA - The Best Of Bond... James Bond (2007) {MGM Music/Capitol}

Posted By: TestTickles
VA - The Best Of Bond... James Bond (2007) {MGM Music/Capitol}

VA - The Best Of Bond… James Bond (2007) {MGM Music/Capitol}
EAC Rip | FLAC with CUE and log | scans | 466 mb
MP3 CBR 320 kbps | RAR | 158 mb
Genre: soundtrack, pop

The Best Of Bond… James Bond is a 2007 compilation which focuses on the many theme songs featured in James Bond 007 films in the last 45 years. I say 45 because this was released in 2007 and mathematically, using another number is wrong. This was organized by MGM Music via Capitol, which means it's a Universal thang, you wouldn't understand.

01. John Barry & Orchestra - James Bond Theme (From "Dr. No")
02. Shirley Bassey - Goldfinger (From "Goldfinger")
03. Carly Simon - Nobody Does It Better (From "The Spy Who Loved Me")
04. Duran Duran - A View To A Kill (From "A View To A Kill")
05. Sheena Easton - For Your Eyes Only (From "For Your Eyes Only")
06. Louis Armstrong - We Have All The Time In The World (From "On Her Majesty's Secret Service")
07. Paul McCartney & Wings - Live And Let Die (From "Live And Let Die")
08. Rita Coolidge - All Time High (From "Octopussy")
09. A-Ha - The Living Daylights (From "The Living Daylights")
10. Gladys Knight - Licence To Kill (From "Licence To Kill")
11. Matt Munro - From Russia With Love (From "From Russia With Love")
12. Tom Jones - Thunderball (From "Thunderball")
13. Nancy Sinatra - You Only Live Twice (From "You Only Live Twice")
14. Shirley Bassey - Moonraker (From "Moonraker")
15. The John Barry Orchestra - On Her Majesty's Secret Service (From "OnHer Majesty's Secret Service")
16. Lulu - The Man With The Golden Gun (From "The Man With The Golden Gun")
17. Shirley Bassey - Diamonds Are Forever (From "Diamonds Are Forever")
18. Tina Turner - Goldeneye (From "Goldeneye")
19. Sheryl Crow - Tomorrow Never Dies (From "Tomorrow Never Dies")
20. Garbage - The World Is Not Enough (From "The World Is Not Enough")
21. Moby - James Bond Theme (From "Tomorrow Never Dies")
22. Parodi - Fair , James Bond Theme (From "Goldeneye" Trailer Version - Previously Unreleased

EAC extraction logfile from 14. June 2007, 18:48 for CD

Various / The Best Of Bond… James Bond

Used drive : TSSTcorpCD/DVDW TS-H552B Adapter: 0 ID: 0
Read mode : Secure with NO C2, accurate stream, disable cache
Read offset correction : 12
Overread into Lead-In and Lead-Out : No

Used output format : C:\Program\Exact Audio Copy\flac.exe (User Defined Encoder)
320 kBit/s
Additional command line options : -8 -A tukey(0.25) -A gauss(0.1875) -b 4096 -V -T "artist=%a" -T "title=%t" -T "album=%g" -T "date=%y" -T "tracknumber=%n" -T "genre=%m" %s –sector-align

Other options :
Fill up missing offset samples with silence : Yes
Delete leading and trailing silent blocks : No
Installed external ASPI interface

Track 1
Filename C:\FLAC\VA - The Best Of Bond… James Bond (2007) [FLAC] {MGM Music, Capitol}\01 - John Barry & Orchestra - James Bond Theme (From ''Dr. No'').wav

Pre-gap length 0:00:02.00

Peak level 98.8 %
Track quality 100.0 %
Test CRC 2C5C4A25
Copy CRC 2C5C4A25
Copy OK

Track 2
Filename C:\FLAC\VA - The Best Of Bond… James Bond (2007) [FLAC] {MGM Music, Capitol}\02 - Shirley Bassey - Goldfinger (From ''Goldfinger'').wav

Pre-gap length 0:00:02.06

Peak level 98.8 %
Track quality 100.0 %
Test CRC CEA3A6A0
Copy CRC CEA3A6A0
Copy OK

Track 3
Filename C:\FLAC\VA - The Best Of Bond… James Bond (2007) [FLAC] {MGM Music, Capitol}\03 - Carly Simon - Nobody Does It Better (From ''The Spy Who Loved Me'').wav

Pre-gap length 0:00:02.49

Peak level 98.8 %
Track quality 99.9 %
Test CRC 780AE644
Copy CRC 780AE644
Copy OK

Track 4
Filename C:\FLAC\VA - The Best Of Bond… James Bond (2007) [FLAC] {MGM Music, Capitol}\04 - Duran Duran - A View To A Kill (From ''A View To A Kill'').wav

Pre-gap length 0:00:02.13

Peak level 98.8 %
Track quality 100.0 %
Test CRC B9907221
Copy CRC B9907221
Copy OK

Track 5
Filename C:\FLAC\VA - The Best Of Bond… James Bond (2007) [FLAC] {MGM Music, Capitol}\05 - Sheena Easton - For Your Eyes Only (From ''For Your Eyes Only'').wav

Pre-gap length 0:00:02.17

Peak level 98.8 %
Track quality 100.0 %
Test CRC CCF016F4
Copy CRC CCF016F4
Copy OK

Track 6
Filename C:\FLAC\VA - The Best Of Bond… James Bond (2007) [FLAC] {MGM Music, Capitol}\06 - Louis Armstrong - We Have All The Time In The World (From ''On Her Majesty's Secret Service'').wav

Pre-gap length 0:00:02.13

Peak level 98.8 %
Track quality 100.0 %
Test CRC AB861D96
Copy CRC AB861D96
Copy OK

Track 7
Filename C:\FLAC\VA - The Best Of Bond… James Bond (2007) [FLAC] {MGM Music, Capitol}\07 - Paul McCartney & Wings - Live And Let Die (From ''Live And Let Die'').wav

Pre-gap length 0:00:03.64

Peak level 98.8 %
Track quality 99.9 %
Test CRC 291D0656
Copy CRC 291D0656
Copy OK

Track 8
Filename C:\FLAC\VA - The Best Of Bond… James Bond (2007) [FLAC] {MGM Music, Capitol}\08 - Rita Coolidge - All Time High (From ''Octopussy'').wav

Pre-gap length 0:00:03.24

Peak level 98.8 %
Track quality 100.0 %
Test CRC F7CBDBD2
Copy CRC F7CBDBD2
Copy OK

Track 9
Filename C:\FLAC\VA - The Best Of Bond… James Bond (2007) [FLAC] {MGM Music, Capitol}\09 - A-Ha - The Living Daylights (From ''The Living Daylights'').wav

Pre-gap length 0:00:02.70

Peak level 98.8 %
Track quality 100.0 %
Test CRC 191A77C2
Copy CRC 191A77C2
Copy OK

Track 10
Filename C:\FLAC\VA - The Best Of Bond… James Bond (2007) [FLAC] {MGM Music, Capitol}\10 - Gladys Knight - Licence To Kill (From ''Licence To Kill'').wav

Pre-gap length 0:00:02.00

Peak level 98.8 %
Track quality 99.9 %
Test CRC 40D4333D
Copy CRC 40D4333D
Copy OK

Track 11
Filename C:\FLAC\VA - The Best Of Bond… James Bond (2007) [FLAC] {MGM Music, Capitol}\11 - Matt Munro - From Russia With Love (From ''From Russia With Love'').wav

Pre-gap length 0:00:02.53

Peak level 98.8 %
Track quality 99.9 %
Test CRC F3841CB1
Copy CRC F3841CB1
Copy OK

Track 12
Filename C:\FLAC\VA - The Best Of Bond… James Bond (2007) [FLAC] {MGM Music, Capitol}\12 - Tom Jones - Thunderball (From ''Thunderball'').wav

Pre-gap length 0:00:03.26

Peak level 98.8 %
Track quality 100.0 %
Test CRC 1E15F96A
Copy CRC 1E15F96A
Copy OK

Track 13
Filename C:\FLAC\VA - The Best Of Bond… James Bond (2007) [FLAC] {MGM Music, Capitol}\13 - Nancy Sinatra - You Only Live Twice (From ''You Only Live Twice'').wav

Pre-gap length 0:00:02.69

Peak level 98.8 %
Track quality 99.9 %
Test CRC 8B0C432C
Copy CRC 8B0C432C
Copy OK

Track 14
Filename C:\FLAC\VA - The Best Of Bond… James Bond (2007) [FLAC] {MGM Music, Capitol}\14 - Shirley Bassey - Moonraker (From ''Moonraker'').wav

Pre-gap length 0:00:02.17

Peak level 98.8 %
Track quality 100.0 %
Test CRC 459BEBD6
Copy CRC 459BEBD6
Copy OK

Track 15
Filename C:\FLAC\VA - The Best Of Bond… James Bond (2007) [FLAC] {MGM Music, Capitol}\15 - The John Barry Orchestra - On Her Majesty's Secret Service (From ''OnHer Majesty's Secret Service'').wav

Pre-gap length 0:00:02.44

Peak level 98.8 %
Track quality 100.0 %
Test CRC 64E51BE0
Copy CRC 64E51BE0
Copy OK

Track 16
Filename C:\FLAC\VA - The Best Of Bond… James Bond (2007) [FLAC] {MGM Music, Capitol}\16 - Lulu - The Man With The Golden Gun (From ''The Man With The Golden Gun'').wav

Pre-gap length 0:00:03.06

Peak level 98.8 %
Track quality 100.0 %
Test CRC C84CFF7B
Copy CRC C84CFF7B
Copy OK

Track 17
Filename C:\FLAC\VA - The Best Of Bond… James Bond (2007) [FLAC] {MGM Music, Capitol}\17 - Shirley Bassey - Diamonds Are Forever (From ''Diamonds Are Forever'').wav

Pre-gap length 0:00:02.33

Peak level 98.8 %
Track quality 99.9 %
Test CRC AECC025D
Copy CRC AECC025D
Copy OK

Track 18
Filename C:\FLAC\VA - The Best Of Bond… James Bond (2007) [FLAC] {MGM Music, Capitol}\18 - Tina Turner - Goldeneye (From ''Goldeneye'').wav

Pre-gap length 0:00:02.86

Peak level 98.8 %
Track quality 100.0 %
Test CRC 790A8BDB
Copy CRC 790A8BDB
Copy OK

Track 19
Filename C:\FLAC\VA - The Best Of Bond… James Bond (2007) [FLAC] {MGM Music, Capitol}\19 - Sheryl Crow - Tomorrow Never Dies (From ''Tomorrow Never Dies'').wav

Pre-gap length 0:00:03.02

Peak level 98.8 %
Track quality 100.0 %
Test CRC E949AE02
Copy CRC E949AE02
Copy OK

Track 20
Filename C:\FLAC\VA - The Best Of Bond… James Bond (2007) [FLAC] {MGM Music, Capitol}\20 - Garbage - The World Is Not Enough (From ''The World Is Not Enough'').wav

Pre-gap length 0:00:01.73

Peak level 98.8 %
Track quality 100.0 %
Test CRC 9CB7557F
Copy CRC 9CB7557F
Copy OK

Track 21
Filename C:\FLAC\VA - The Best Of Bond… James Bond (2007) [FLAC] {MGM Music, Capitol}\21 - Moby - James Bond Theme (From ''Tomorrow Never Dies'').wav

Pre-gap length 0:00:01.73

Peak level 97.0 %
Track quality 99.9 %
Test CRC 7C7826DA
Copy CRC 7C7826DA
Copy OK

Track 22
Filename C:\FLAC\VA - The Best Of Bond… James Bond (2007) [FLAC] {MGM Music, Capitol}\22 - Parodi - Fair , James Bond Theme (From ''Goldeneye'' Trailer Version - Previously Unreleased.wav

Pre-gap length 0:00:01.73

Peak level 100.0 %
Track quality 100.0 %
Test CRC 9C54FBF0
Copy CRC 9C54FBF0
Copy OK

No errors occured

End of status report


VA - The Best Of Bond... James Bond (2007) {MGM Music/Capitol}


Thank you to the original uploader.