Tags
Language
Tags

The Comsat Angels - Fiction (1982) {1995 RPM}

Posted By: TestTickles
The Comsat Angels - Fiction (1982) {1995 RPM}

The Comsat Angels - Fiction (1982) {1995 RPM}
EAC Rip | FLAC with CUE and LOG | scans | 357 mb
MP3 CBR 320 kbps | RAR | 124 mb
Genre: new wave, indie rock, post-modern

Fiction is the 1982 album by British rock band The Comsat Angels. This is the 1995 reissue released by RPM Records featuring four bonus tracks.

The Comsat Angels - Fiction (1982) {1995 RPM}

01. After The Rain (3:58)
02. Zinger (3:29)
03. Now I Know (3:59)
04. Not A Word (3:44)
05. Ju Ju Money (3:28)
06. More (3:34)
07. Pictures (4:27)
08. Birdman (5:01)
09. Don't Look Now (4:47)
10. What Else! (4:32)
11. It's History (Bonus Track) (3:41)
12. After The Rain (Remix) (Bonus Track) (4:01)
13. Private Party (Bonus Track) (3:49)
14. Mass (Bonus Track) (3:47)

Exact Audio Copy V0.99 prebeta 5 from 4. May 2009

EAC extraction logfile from 9. September 2010, 10:58

The Comsat Angels / Fiction

Used drive : TSSTcorpCD/DVDW SH-S182M Adapter: 2 ID: 1

Read mode : Secure
Utilize accurate stream : Yes
Defeat audio cache : Yes
Make use of C2 pointers : No

Read offset correction : 6
Overread into Lead-In and Lead-Out : No
Fill up missing offset samples with silence : Yes
Delete leading and trailing silent blocks : No
Null samples used in CRC calculations : Yes
Used interface : Native Win32 interface for Win NT & 2000
Gap handling : Appended to previous track

Used output format : User Defined Encoder
Selected bitrate : 768 kBit/s
Quality : High
Add ID3 tag : No
Command line compressor : C:\program files\exact audio copy\FLAC\FLAC.EXE
Additional command line options : -V -8 -T "artist=%a" -T "title=%t" -T "album=%g" -T "date=%y" -T "tracknumber=%n" -T "genre=%m" %s


TOC of the extracted CD

Track | Start | Length | Start sector | End sector
––––––––––––––––––––––––––––-
1 | 0:00.32 | 3:58.28 | 32 | 17909
2 | 3:58.60 | 3:29.25 | 17910 | 33609
3 | 7:28.10 | 3:58.47 | 33610 | 51506
4 | 11:26.57 | 3:44.08 | 51507 | 68314
5 | 15:10.65 | 3:28.07 | 68315 | 83921
6 | 18:38.72 | 3:33.65 | 83922 | 99961
7 | 22:12.62 | 4:26.65 | 99962 | 119976
8 | 26:39.52 | 5:01.23 | 119977 | 142574
9 | 31:41.00 | 4:47.17 | 142575 | 164116
10 | 36:28.17 | 4:32.20 | 164117 | 184536
11 | 41:00.37 | 3:40.63 | 184537 | 201099
12 | 44:41.25 | 4:00.70 | 201100 | 219169
13 | 48:42.20 | 3:48.55 | 219170 | 236324
14 | 52:31.00 | 3:47.32 | 236325 | 253381


Track 1

FilenameC:\cuntfist\FLAC\The Comsat Angels - Fiction (1982) [FLAC] {1995 RPM}\01 - After The Rain.wav

Pre-gap length 0:00:02.32

Peak level 98.5 %
Track quality 100.0 %
Test CRC A1DB1795
Copy CRC A1DB1795
Track not present in AccurateRip database
Copy OK

Track 2

FilenameC:\cuntfist\FLAC\The Comsat Angels - Fiction (1982) [FLAC] {1995 RPM}\02 - Zinger.wav

Peak level 100.0 %
Track quality 100.0 %
Test CRC FC61E9F5
Copy CRC FC61E9F5
Track not present in AccurateRip database
Copy OK

Track 3

FilenameC:\cuntfist\FLAC\The Comsat Angels - Fiction (1982) [FLAC] {1995 RPM}\03 - Now I Know.wav

Pre-gap length 0:00:01.00

Peak level 100.0 %
Track quality 100.0 %
Test CRC 379135BC
Copy CRC 379135BC
Track not present in AccurateRip database
Copy OK

Track 4

FilenameC:\cuntfist\FLAC\The Comsat Angels - Fiction (1982) [FLAC] {1995 RPM}\04 - Not A Word.wav

Pre-gap length 0:00:00.37

Peak level 100.0 %
Track quality 99.9 %
Test CRC A52892CD
Copy CRC A52892CD
Track not present in AccurateRip database
Copy OK

Track 5

FilenameC:\cuntfist\FLAC\The Comsat Angels - Fiction (1982) [FLAC] {1995 RPM}\05 - Ju Ju Money.wav

Pre-gap length 0:00:01.00

Peak level 99.6 %
Track quality 100.0 %
Test CRC 914FC7B0
Copy CRC 914FC7B0
Track not present in AccurateRip database
Copy OK

Track 6

FilenameC:\cuntfist\FLAC\The Comsat Angels - Fiction (1982) [FLAC] {1995 RPM}\06 - More.wav

Pre-gap length 0:00:01.00

Peak level 100.0 %
Track quality 99.9 %
Test CRC E22F610B
Copy CRC E22F610B
Track not present in AccurateRip database
Copy OK

Track 7

FilenameC:\cuntfist\FLAC\The Comsat Angels - Fiction (1982) [FLAC] {1995 RPM}\07 - Pictures.wav

Pre-gap length 0:00:01.00

Peak level 100.0 %
Track quality 100.0 %
Test CRC F9CB39D5
Copy CRC F9CB39D5
Track not present in AccurateRip database
Copy OK

Track 8

FilenameC:\cuntfist\FLAC\The Comsat Angels - Fiction (1982) [FLAC] {1995 RPM}\08 - Birdman.wav

Pre-gap length 0:00:01.00

Peak level 100.0 %
Track quality 100.0 %
Test CRC 924667C0
Copy CRC 924667C0
Track not present in AccurateRip database
Copy OK

Track 9

FilenameC:\cuntfist\FLAC\The Comsat Angels - Fiction (1982) [FLAC] {1995 RPM}\09 - Don't Look Now.wav

Pre-gap length 0:00:01.00

Peak level 100.0 %
Track quality 99.9 %
Test CRC 0A6A60FC
Copy CRC 0A6A60FC
Track not present in AccurateRip database
Copy OK

Track 10

FilenameC:\cuntfist\FLAC\The Comsat Angels - Fiction (1982) [FLAC] {1995 RPM}\10 - What Else!.wav

Pre-gap length 0:00:01.00

Peak level 100.0 %
Track quality 100.0 %
Test CRC EF148E29
Copy CRC EF148E29
Track not present in AccurateRip database
Copy OK

Track 11

FilenameC:\cuntfist\FLAC\The Comsat Angels - Fiction (1982) [FLAC] {1995 RPM}\11 - It's History (Bonus Track).wav

Pre-gap length 0:00:02.00

Peak level 100.0 %
Track quality 99.9 %
Test CRC 9E42AD37
Copy CRC 9E42AD37
Track not present in AccurateRip database
Copy OK

Track 12

FilenameC:\cuntfist\FLAC\The Comsat Angels - Fiction (1982) [FLAC] {1995 RPM}\12 - After The Rain (Remix) (Bonus Track).wav

Pre-gap length 0:00:01.00

Peak level 100.0 %
Track quality 100.0 %
Test CRC FCB583CD
Copy CRC FCB583CD
Track not present in AccurateRip database
Copy OK

Track 13

FilenameC:\cuntfist\FLAC\The Comsat Angels - Fiction (1982) [FLAC] {1995 RPM}\13 - Private Party (Bonus Track).wav

Pre-gap length 0:00:01.00

Peak level 100.0 %
Track quality 100.0 %
Test CRC EB3AABEA
Copy CRC EB3AABEA
Track not present in AccurateRip database
Copy OK

Track 14

FilenameC:\cuntfist\FLAC\The Comsat Angels - Fiction (1982) [FLAC] {1995 RPM}\14 - Mass (Bonus Track).wav

Pre-gap length 0:00:01.00

Peak level 98.1 %
Track quality 100.0 %
Test CRC 1B936169
Copy CRC 1B936169
Track not present in AccurateRip database
Copy OK


None of the tracks are present in the AccurateRip database

No errors occurred

End of status report


The Comsat Angels - Fiction (1982) {1995 RPM}


Thank you to the original uploader.