Subcategories

VA - This Funky Thing: An Extremely Rare 70's Collection (1997) {Goldmine/Soul Supply} **[RE-UP]**

Posted By: TestTickles
VA - This Funky Thing: An Extremely Rare 70's Collection (1997) {Goldmine/Soul Supply} **[RE-UP]**

VA - This Funky Thing: An Extremely Rare 70's Collection (1997) {Goldmine/Soul Supply}
EAC Rip | FLAC with CUE and log | scans | 238 mb
MP3 CBR 320kbps | RAR | 114 mb
Genre: soul, R&B, funk

This Funky Thing is subtitled An Extremely Rare 70's Collection due to the source of most of these songs. Even though he is on the cover, James Brown is not on this compilation. Instead, these songs are made with the power to have the same majestic power as James Brown. This is a semi-legal comp, most of these are sourced from original vinyl records. Some of these songs are known as samples in hip-hop and dance songs. This was released by Goldmine/Soul Supply.


VA - This Funky Thing: An Extremely Rare 70's Collection (1997) {Goldmine/Soul Supply} **[RE-UP]**

01. Don Pierce - This Funky Thing
02. Curtis Davis - Your Love And My Money
03. Carleen & The Groovers - Hot Pants
04. The Soul Controllers - Right On Brother, Right On
05. Lonzine Wright - I've Been Searching
06. Mato & The Mystics - Soul Groove
07. The Soul Company - Hump The Bump
08. The Blenders LTD - When Ya Git Through Wit It Put It Back
09. Kenny Smith & The Loveliters - Go For It (Part One)
10. Count Rockin' Sidney - Bury The Hatchet
11. Explosions featuring Juanita Brooks - Garden Of Four Trees
12. The Soul Merchants - Dynamite
13. The Soul Clinic - So Sharp
14. Lil Waters' Burning Flame - Do The Rope-Dee-Dope
15. The Classitors - Gettin' T'gether Man
16. Soul Excitement - Stay Together
17. Stormy Jazzmin - Stormy Jazzmin (Part One)

EAC extraction logfile from 1. August 2007, 22:57 for CD
Various Artists / This Funky Thing

Used drive : LITE-ON DVDRW SOHW-1633S Adapter: 0 ID: 0
Read mode : Secure with NO C2, accurate stream, disable cache
Read offset correction : 12
Overread into Lead-In and Lead-Out : No

Used output format : Internal WAV Routines
44.100 Hz; 16 Bit; Stereo

Other options :
Fill up missing offset samples with silence : Yes
Delete leading and trailing silent blocks : No
Installed external ASPI interface


Track 1
Filename D:\FLAC\VA - This Funky Thing (1997) [FLAC]\01 - This Funky Thing.wav

Pre-gap length 0:00:02.00

Peak level 99.6 %
Track quality 100.0 %
Test CRC 2CEA4377
Copy CRC 2CEA4377
Copy OK

Track 2
Filename D:\FLAC\VA - This Funky Thing (1997) [FLAC]\02 - Your Love And My Money.wav

Pre-gap length 0:00:02.13

Peak level 84.7 %
Track quality 99.9 %
Test CRC 51F76285
Copy CRC 51F76285
Copy OK

Track 3
Filename D:\FLAC\VA - This Funky Thing (1997) [FLAC]\03 - Hot Pants.wav

Pre-gap length 0:00:02.13

Peak level 94.0 %
Track quality 100.0 %
Test CRC D058FE2E
Copy CRC D058FE2E
Copy OK

Track 4
Filename D:\FLAC\VA - This Funky Thing (1997) [FLAC]\04 - Right On Brother, Right On.wav

Pre-gap length 0:00:02.13

Peak level 83.3 %
Track quality 99.9 %
Test CRC 724C6586
Copy CRC 724C6586
Copy OK

Track 5
Filename D:\FLAC\VA - This Funky Thing (1997) [FLAC]\05 - I've Been Searching.wav

Pre-gap length 0:00:02.13

Peak level 99.6 %
Track quality 100.0 %
Test CRC 0DD7013E
Copy CRC 0DD7013E
Copy OK

Track 6
Filename D:\FLAC\VA - This Funky Thing (1997) [FLAC]\06 - Soul Groove.wav

Pre-gap length 0:00:02.16

Peak level 69.4 %
Track quality 100.0 %
Test CRC F30BDF29
Copy CRC F30BDF29
Copy OK

Track 7
Filename D:\FLAC\VA - This Funky Thing (1997) [FLAC]\07 - Hump The Bump.wav

Pre-gap length 0:00:02.13

Peak level 99.6 %
Track quality 100.0 %
Test CRC CCA687F4
Copy CRC CCA687F4
Copy OK

Track 8
Filename D:\FLAC\VA - This Funky Thing (1997) [FLAC]\08 - When Ya Git Through Wit It Put It Back.wav

Pre-gap length 0:00:02.13

Peak level 94.0 %
Track quality 100.0 %
Test CRC A1FE646B
Copy CRC A1FE646B
Copy OK

Track 9
Filename D:\FLAC\VA - This Funky Thing (1997) [FLAC]\09 - Go For It (Part One).wav

Pre-gap length 0:00:02.13

Peak level 92.9 %
Track quality 100.0 %
Test CRC 3AFB6608
Copy CRC 3AFB6608
Copy OK

Track 10
Filename D:\FLAC\VA - This Funky Thing (1997) [FLAC]\10 - Bury The Hatchet.wav

Pre-gap length 0:00:02.13

Peak level 88.7 %
Track quality 99.9 %
Test CRC DE8BA5A4
Copy CRC DE8BA5A4
Copy OK

Track 11
Filename D:\FLAC\VA - This Funky Thing (1997) [FLAC]\11 - Garden Of Four Trees.wav

Pre-gap length 0:00:02.13

Peak level 89.3 %
Track quality 100.0 %
Test CRC F61C2B32
Copy CRC F61C2B32
Copy OK

Track 12
Filename D:\FLAC\VA - This Funky Thing (1997) [FLAC]\12 - Dynamite.wav

Pre-gap length 0:00:02.13

Peak level 84.7 %
Track quality 100.0 %
Test CRC 919810C1
Copy CRC 919810C1
Copy OK

Track 13
Filename D:\FLAC\VA - This Funky Thing (1997) [FLAC]\13 - So Sharp.wav

Pre-gap length 0:00:02.13

Peak level 91.9 %
Track quality 100.0 %
Test CRC DFF54942
Copy CRC DFF54942
Copy OK

Track 14
Filename D:\FLAC\VA - This Funky Thing (1997) [FLAC]\14 - Do The Rope-Dee-Dope.wav

Pre-gap length 0:00:02.13

Peak level 99.6 %
Track quality 99.9 %
Test CRC 84298120
Copy CRC 84298120
Copy OK

Track 15
Filename D:\FLAC\VA - This Funky Thing (1997) [FLAC]\15 - Gettin' T'gether Man.wav

Pre-gap length 0:00:02.13

Peak level 83.8 %
Track quality 100.0 %
Test CRC 73244030
Copy CRC 73244030
Copy OK

Track 16
Filename D:\FLAC\VA - This Funky Thing (1997) [FLAC]\16 - Stay Together.wav

Pre-gap length 0:00:02.13

Peak level 81.0 %
Track quality 100.0 %
Test CRC AACB5875
Copy CRC AACB5875
Copy OK

Track 17
Filename D:\FLAC\VA - This Funky Thing (1997) [FLAC]\17 - Stormy Jazzmin (Part One).wav

Pre-gap length 0:00:02.13

Peak level 99.6 %
Track quality 100.0 %
Test CRC F329CDD0
Copy CRC F329CDD0
Copy OK

No errors occured


End of status report


VA - This Funky Thing: An Extremely Rare 70's Collection (1997) {Goldmine/Soul Supply} **[RE-UP]**