Tags
Language
Tags

Takis Barberis - Porto Kayio (2004) {Libra Music}

Posted By: tiburon
Takis Barberis - Porto Kayio (2004) {Libra Music}

Takis Barberis - Porto Kayio (2004) {Libra Music}
EAC 0.99pb4 | FLAC tracks level 8 | Cue+Log+M3U | Full Scans 300dpi | 437MB + 5% Recovery
MP3 CBR 320 Kbps | 175MB + 5% Recovery
Genre: Fusion, Ethnic Fusion

A jazz amalgam which embodies various elements from Indian, Funk, Rock, African, Balkan and Greek music. Melodic compositions for Guitars, Trumpet, El. Sitar, Tabla, Piano, Synth, Bass and Drums full of spirited improvisations.
Track List
01. Porto Kayio
02. Loops Like Sirens
03. Hydro
04. Balsam
05. Poly P.
06. Tilang
07. B Open
08. Balkanism
09. Burned Finger
10. November Start
11. Oia
12. Chakra
13. Three Beats Story
14. Matarnia

musicians
Bass – Yiorgos Georgiadis
Drums – Michalis Kapilidis
Electric Piano – Manos Saridakis
Guitar, Electric Sitar, Sampler – Takis Barberis
Hindustani Slide Guitar – Debashish Bhattacharya
Tabla, Voice – Subhashis Bhattacharya

Produced by Takis Barberis


Exact Audio Copy V0.99 prebeta 4 from 23. January 2008

EAC extraction logfile from 2. February 2010, 10:26

Takis Barberis / Porto kayio

Used drive : HL-DT-STDVD-ROM GDR8164B Adapter: 1 ID: 1

Read mode : Secure
Utilize accurate stream : Yes
Defeat audio cache : Yes
Make use of C2 pointers : No

Read offset correction : 102
Overread into Lead-In and Lead-Out : No
Fill up missing offset samples with silence : Yes
Delete leading and trailing silent blocks : No
Null samples used in CRC calculations : Yes
Used interface : Installed external ASPI interface
Gap handling : Appended to previous track

Used output format : User Defined Encoder
Selected bitrate : 128 kBit/s
Quality : High
Add ID3 tag : No
Command line compressor : C:\Program Files\FLAC\flac.exe
Additional command line options : -8 -V -T "ARTIST=%a" -T "TITLE=%t" -T "ALBUM=%g" -T "DATE=%y" -T "TRACKNUMBER=%n" -T "GENRE=%m" -T "COMMENT=EAC FLAC -8" %s


TOC of the extracted CD

Track | Start | Length | Start sector | End sector
––––––––––––––––––––––––––––-
1 | 0:00.00 | 4:57.70 | 0 | 22344
2 | 4:57.70 | 5:25.05 | 22345 | 46724
3 | 10:23.00 | 4:27.22 | 46725 | 66771
4 | 14:50.22 | 1:55.74 | 66772 | 75470
5 | 16:46.21 | 6:11.18 | 75471 | 103313
6 | 22:57.39 | 6:33.43 | 103314 | 132831
7 | 29:31.07 | 5:25.17 | 132832 | 157223
8 | 34:56.24 | 5:15.23 | 157224 | 180871
9 | 40:11.47 | 4:48.20 | 180872 | 202491
10 | 44:59.67 | 4:13.38 | 202492 | 221504
11 | 49:13.30 | 3:46.55 | 221505 | 238509
12 | 53:00.10 | 5:49.27 | 238510 | 264711
13 | 58:49.37 | 3:38.49 | 264712 | 281110
14 | 62:28.11 | 6:37.38 | 281111 | 310923


Track 1

Filename C:\Takis Barberis - Porto Kayio (2004) [FLAC] {Libra Music, LM031-2}\01 - Porto Kayio.wav

Pre-gap length 0:00:02.00

Peak level 100.0 %
Track quality 100.0 %
Test CRC FB61373D
Copy CRC FB61373D
Track not present in AccurateRip database
Copy OK

Track 2

Filename C:\Takis Barberis - Porto Kayio (2004) [FLAC] {Libra Music, LM031-2}\02 - Loops Like Sirens.wav

Pre-gap length 0:00:02.10

Peak level 100.0 %
Track quality 99.9 %
Test CRC 461B00F0
Copy CRC 461B00F0
Track not present in AccurateRip database
Copy OK

Track 3

Filename C:\Takis Barberis - Porto Kayio (2004) [FLAC] {Libra Music, LM031-2}\03 - Hydro.wav

Pre-gap length 0:00:04.37

Peak level 100.0 %
Track quality 99.9 %
Test CRC 8EC8D06E
Copy CRC 8EC8D06E
Track not present in AccurateRip database
Copy OK

Track 4

Filename C:\Takis Barberis - Porto Kayio (2004) [FLAC] {Libra Music, LM031-2}\04 - Balsam.wav

Pre-gap length 0:00:03.57

Peak level 96.5 %
Track quality 100.0 %
Test CRC 8B3A7495
Copy CRC 8B3A7495
Track not present in AccurateRip database
Copy OK

Track 5

Filename C:\Takis Barberis - Porto Kayio (2004) [FLAC] {Libra Music, LM031-2}\05 - Poly P..wav

Pre-gap length 0:00:02.58

Peak level 100.0 %
Track quality 99.9 %
Test CRC BCD85395
Copy CRC BCD85395
Track not present in AccurateRip database
Copy OK

Track 6

Filename C:\Takis Barberis - Porto Kayio (2004) [FLAC] {Libra Music, LM031-2}\06 - Tilang.wav

Pre-gap length 0:00:02.61

Peak level 100.0 %
Track quality 100.0 %
Test CRC 0445B4A5
Copy CRC 0445B4A5
Track not present in AccurateRip database
Copy OK

Track 7

Filename C:\Takis Barberis - Porto Kayio (2004) [FLAC] {Libra Music, LM031-2}\07 - B Open.wav

Pre-gap length 0:00:03.96

Peak level 100.0 %
Track quality 100.0 %
Test CRC 32DEFC71
Copy CRC 32DEFC71
Track not present in AccurateRip database
Copy OK

Track 8

Filename C:\Takis Barberis - Porto Kayio (2004) [FLAC] {Libra Music, LM031-2}\08 - Balkanism.wav

Pre-gap length 0:00:02.77

Peak level 96.6 %
Track quality 100.0 %
Test CRC 2DFB3442
Copy CRC 2DFB3442
Track not present in AccurateRip database
Copy OK

Track 9

Filename C:\Takis Barberis - Porto Kayio (2004) [FLAC] {Libra Music, LM031-2}\09 - Burned Fingers.wav

Pre-gap length 0:00:02.64

Peak level 99.8 %
Track quality 100.0 %
Test CRC 42EDA71A
Copy CRC 42EDA71A
Track not present in AccurateRip database
Copy OK

Track 10

Filename C:\Takis Barberis - Porto Kayio (2004) [FLAC] {Libra Music, LM031-2}\10 - November Start.wav

Pre-gap length 0:00:02.57

Peak level 100.0 %
Track quality 100.0 %
Test CRC A69888DB
Copy CRC A69888DB
Track not present in AccurateRip database
Copy OK

Track 11

Filename C:\Takis Barberis - Porto Kayio (2004) [FLAC] {Libra Music, LM031-2}\11 - Oia.wav

Pre-gap length 0:00:02.58

Peak level 95.6 %
Track quality 100.0 %
Test CRC 77BB3965
Copy CRC 77BB3965
Track not present in AccurateRip database
Copy OK

Track 12

Filename C:\Takis Barberis - Porto Kayio (2004) [FLAC] {Libra Music, LM031-2}\12 - Chakra.wav

Pre-gap length 0:00:02.58

Peak level 100.0 %
Track quality 100.0 %
Test CRC 64B68427
Copy CRC 64B68427
Track not present in AccurateRip database
Copy OK

Track 13

Filename C:\Takis Barberis - Porto Kayio (2004) [FLAC] {Libra Music, LM031-2}\13 - Three Beats Story.wav

Pre-gap length 0:00:02.57

Peak level 99.8 %
Track quality 100.0 %
Test CRC DEA5E55B
Copy CRC DEA5E55B
Track not present in AccurateRip database
Copy OK

Track 14

Filename C:\Takis Barberis - Porto Kayio (2004) [FLAC] {Libra Music, LM031-2}\14 - Matarnia.wav

Pre-gap length 0:00:03.06

Peak level 100.0 %
Track quality 99.9 %
Test CRC 5388125E
Copy CRC 5388125E
Track not present in AccurateRip database
Copy OK


None of the tracks are present in the AccurateRip database

No errors occurred

End of status report

Takis Barberis - Porto Kayio (2004) {Libra Music}
Takis Barberis - Porto Kayio (2004) {Libra Music}


Thanks to the original ripper