Tags
Language
Tags

Tangerine Dream - DM V (Dream Mixes V) (2010)

Posted By: gribovar
Tangerine Dream - DM V (Dream Mixes V) (2010)

Tangerine Dream - DM V (Dream Mixes V) (2010)
EAC Rip | APE (image+.cue+log) - 441 MB | MP3 CBR 320 kbps (LAME 3.93) - 167 MB | Covers (15 MB) included
Genre: Progressive Electronic, Berlin School | RAR 3% Rec. | Label: Moonpop (moostcd-001)

Despite being credited to both Edgar Froese and Jerome Froese, in fact only the final track of the disc carries anything of Edgar's fingerprints, being an alternate mix of his own composition Mombasa, originally released just a few months ago on Booster III (2009). All of the other remixes on DM V are solely the result of Jerome's work on classic TD material from the seventies and eighties, all of which have the original music more or less discernible at some point within them. The most deeply buried of the originals is the brief inclusion of a snatch of Rubycon (1975) as an inner layer to The Return of Time, largely swallowed by a newly minted percussion pulse and swathe of electronic textures. Other tracks, however, offer substantial representations of clearly recognisable original thematic materials, in bold but entirely appropriate new ways, such as the title track from Exit (1981) as Flow Paths, two different sections of Horizon from Poland (1984) as Scope of Mind and Hinterland, respectively, Midnight In Tula from White Eagle (1982) in Code to Zero, or Alien Sitcom, which started life as Mojave End Title from the soundtrack album Wavelength (1984). Others go even further in doing little more than beefing up or extending the originals: Meshwork is an expansion of Flock from Das Mädchen auf der Treppe (1982) and Polar Circles is recognisable as Running Out Of Time from Miracle Mile (1989). Throughout this release, Jerome Froese demonstrates the same sense of musicality that features in his solo releases Neptunes and Shiver Me Timbers. His remixes here genuinely do grow the originals to new heights, with treatments that enhance and modernise without detracting or debasing the originals.
Tracklist:
01. The Return Of The Time
02. Flow Paths
03. Scope Of Mind
04. Meshwork
05. Code To Zero
06. Polar Circles
07. Alien Sitcom
08. Hinterland
09. Mombasa (Touareg Remix)

Total time: 01:04:07

Exact Audio Copy V0.99 prebeta 5 from 4. May 2009

EAC extraction logfile from 18. April 2010, 22:43

Tangerine Dream / Dream Mixes V

Used drive : ASUS DRW-1814BL Adapter: 0 ID: 0

Read mode : Secure
Utilize accurate stream : Yes
Defeat audio cache : Yes
Make use of C2 pointers : No

Read offset correction : 6
Overread into Lead-In and Lead-Out : No
Fill up missing offset samples with silence : Yes
Delete leading and trailing silent blocks : No
Null samples used in CRC calculations : Yes
Used interface : Native Win32 interface for Win NT & 2000

Used output format : Internal WAV Routines
Sample format : 44.100 Hz; 16 Bit; Stereo


TOC of the extracted CD

Track | Start | Length | Start sector | End sector
––––––––––––––––––––––––––––-
1 | 0:00.00 | 7:46.30 | 0 | 34979
2 | 7:46.30 | 7:18.41 | 34980 | 67870
3 | 15:04.71 | 6:58.40 | 67871 | 99260
4 | 22:03.36 | 6:11.13 | 99261 | 127098
5 | 28:14.49 | 5:58.66 | 127099 | 154014
6 | 34:13.40 | 6:05.24 | 154015 | 181413
7 | 40:18.64 | 7:31.23 | 181414 | 215261
8 | 47:50.12 | 6:33.42 | 215262 | 244778
9 | 54:23.54 | 9:43.58 | 244779 | 288561


Range status and errors

Selected range

Filename D:\EAC\Tangerine Dream - Dream Mixes V.wav

Peak level 98.6 %
Range quality 100.0 %
Test CRC 92C544B0
Copy CRC 92C544B0
Copy OK

No errors occurred


AccurateRip summary

Track 1 not present in database
Track 2 not present in database
Track 3 not present in database
Track 4 not present in database
Track 5 not present in database
Track 6 not present in database
Track 7 not present in database
Track 8 not present in database
Track 9 not present in database

None of the tracks are present in the AccurateRip database

End of status report

[CUETools log; Date: 26.10.2017 21:38:18; Version: 2.1.4]
[CTDB TOCID: pUNUovshZiCS1tUbCm1WGxzmjdQ-] found.
Track | CTDB Status
1 | (16/16) Accurately ripped
2 | (16/16) Accurately ripped
3 | (16/16) Accurately ripped
4 | (16/16) Accurately ripped
5 | (16/16) Accurately ripped
6 | ( 2/16) Accurately ripped, or (13/16) differs in 1 samples @06:02:08
7 | (15/16) Accurately ripped
8 | (16/16) Accurately ripped
9 | (16/16) Accurately ripped
[AccurateRip ID: 0015907b-009d54ac-7b0f0709] found.
Track [ CRC | V2 ] Status
01 [1b734a9e|a28520c0] (07+05/12) Accurately ripped
02 [be970d58|6ab9babc] (07+05/12) Accurately ripped
03 [37935d24|742f2c33] (07+05/12) Accurately ripped
04 [08e66b4c|3442c929] (07+05/12) Accurately ripped
05 [3d2d2f2d|d31d9dce] (07+05/12) Accurately ripped
06 [d64189b2|3cfbb13c] (00+00/11) No match
07 [d4c0ed1c|a9151b13] (07+04/11) Accurately ripped
08 [8c89d857|a51339aa] (07+04/11) Accurately ripped
09 [f350b4e6|40d045e3] (06+04/10) Accurately ripped

Track Peak [ CRC32 ] [W/O NULL] [ LOG ]
– 98,6 [92C544B0] [7F6C9A60] CRC32
01 98,6 [36CE5C7B] [2B67EC81]
02 97,5 [B9F192E6] [9378EB1E]
03 98,6 [BF5A0E35] [3A89FC02]
04 98,6 [CF33080A] [54246BDE]
05 98,1 [E6C6AF02] [CF71C23E]
06 91,8 [14695541] [44DDBF55]
07 98,6 [71EF8E5E] [A48267BF]
08 98,6 [D4928454] [26700640]
09 98,6 [4085B8BB] [E6237990]

Thanks to the original releaser