Tags
Language
Tags

Tangerine Dream - Encore (1977) (Re-up)

Posted By: gribovar
Tangerine Dream - Encore (1977) (Re-up)

Tangerine Dream - Encore (1977)
EAC Rip | FLAC (image+.cue+log) - 403 MB | MP3 CBR 320 kbps (LAME 3.93) - 167 MB | Covers - 11 MB
Genre: Electronic, Berlin School | RAR 3% Rec. | Label: Virgin (CDVD 2506)

Encore - Tangerine Dream Live, 1977 is one of the better concert albums from Tangerine Dream. As with most of their live releases, this disc features all new material. Each of the long-form (over 16 minutes) pieces has its own set of movements. In effect, it is like listening to four electronic symphonies. This is also one of the strongest TD lineups. The set features Edgar Froese, Christopher Franke and Peter Baumann on synthesizers, effects and other electronic devices. (It is Baumann's last recording with the band.) The music ranges from dirge-like drones to piano solos to crashing experimental textures. There are echoes of progressive and avant-garde rock. The set is uniquely Tangerine Dream, however, with similarities to Genesis, Pink Floyd and other art rock practitioners of that era.

Tracklist:
01. Cherokee Lane
02. Monolight
03. Coldwater Canyon
04. Desert Dream

Total time: 01:10:59

Exact Audio Copy V1.0 beta 3 from 29. August 2011

Отчёт EAC об извлечении, выполненном 15. апреля 2015, 21:39

Tangerine Dream / Encore [First press]

Дисковод: PIONEER DVD-RW DVR-221L Adapter: 3 ID: 0

Режим чтения : Достоверность
Использование точного потока : Да
Отключение кэша аудио : Да
Использование указателей C2 : Нет

Коррекция смещения при чтении : 6
Способность читать области Lead-in и Lead-out : Нет
Заполнение пропущенных сэмплов тишиной : Да
Удаление блоков с тишиной в начале и конце : Нет
При вычислениях CRC использовались нулевые сэмплы : Да
Интерфейс : Встроенный Win32-интерфейс для Win NT/2000

Выходной формат : Пользовательский кодировщик
Выбранный битрейт : 1024 kBit/s
Качество : Высокий
Добавление ID3-тега : Нет
Утилита сжатия : C:\Program Files (x86)\FLAC\flac.exe
Дополнительные параметры : -V -8 -T "Date=%year%" -T "Genre=%genre%" %source%


TOC извлечённого CD

Трек | Старт | Длительность | Начальный сектор | Конечный сектор
––––––––––––––––––––––––––––––––––-
1 | 0:00.00 | 16:07.35 | 0 | 72559
2 | 16:07.35 | 19:37.35 | 72560 | 160869
3 | 35:44.70 | 17:40.20 | 160870 | 240389
4 | 53:25.15 | 17:33.30 | 240390 | 319394


Характеристики диапазона извлечения и сообщения об ошибках

Выбранный диапазон

Имя файла F:\FLAC\Tangerine Dream - Encore [First press].wav

Пиковый уровень 100.0 %
Скорость извлечения 5.3 X
Качество диапазона 100.0 %
CRC теста A132492C
CRC копии A132492C
Копирование… OK

Ошибок не произошло


AccurateRip: сводка

Трек 1 : извлечено точно (доверие 23) [3D0027BB] (AR v2)
Трек 2 : извлечено точно (доверие 21) [48B4FA6A] (AR v2)
Трек 3 : извлечено точно (доверие 23) [FC36E08A] (AR v2)
Трек 4 : извлечено точно (доверие 22) [41BF8FB2] (AR v2)

Все треки извлечены точно

Конец отчёта

==== Контрольная сумма отчёта 8C60096EDAE89EB0AF4FA5B33E978E15B4EDA36D9169B5B01C4A58DF0E7CD320 ====

[CUETools log; Date: 27.02.2021 13:54:54; Version: 2.1.4]
[CTDB TOCID: kIB4iNE_mr_4VObuDI5DWilK2HI-] found.
Track | CTDB Status
1 | ( 92/149) Accurately ripped, or (50/149) differs in 27 samples @02:13:63,02:14:73
2 | (147/149) Accurately ripped
3 | (145/149) Accurately ripped
4 | (141/149) Accurately ripped
[AccurateRip ID: 000c1a7f-00309e5a-3310a204] found.
Track [ CRC | V2 ] Status
01 [76dd6d85|3d0027bb] (25+39/96) Accurately ripped
02 [be31723f|48b4fa6a] (25+37/98) Accurately ripped
03 [d76ad8fe|fc36e08a] (25+39/99) Accurately ripped
04 [0ce62405|41bf8fb2] (25+38/97) Accurately ripped
Offsetted by 18:
01 [d459bf7b] (00/96) No match (V2 was not tested)
02 [8b6cbd32] (00/98) No match (V2 was not tested)
03 [51375388] (00/99) No match (V2 was not tested)
04 [3cdd2dae] (00/97) No match (V2 was not tested)
Offsetted by 100:
01 [9aac8a31] (00/96) No match (V2 was not tested)
02 [f934c810] (20/98) Accurately ripped
03 [afb7df48] (20/99) Accurately ripped
04 [55f3a7de] (20/97) Accurately ripped

Track Peak [ CRC32 ] [W/O NULL] [ LOG ]
– 100,0 [A132492C] [85CBAED4] CRC32
01 100,0 [2F99E6FF] [BF961288]
02 100,0 [664E4266] [18E80522]
03 100,0 [36283278] [F2578D03]
04 100,0 [1D556B08] [6F4B2DFA]

Thanks to burzzum

See also:
Tangerine Dream - The Electronic Journey (2010) [10CD Box Set]
Tangerine Dream - The Dream Roots Collection [5CD Box Set] (1996)
Tangerine Dream - Electronic Meditation (1970) [Reissue 1996]
Tangerine Dream - Alpha Centauri (1971) [Reissue 1996]
Tangerine Dream - Alpha Centauri (1971) [Reissue 2011]
Tangerine Dream - Zeit (1972) [Reissue 1996]
Tangerine Dream - Atem (1973) [Reissue 2011]
Tangerine Dream - Phaedra (1974) [Original Edition]
Tangerine Dream - Phaedra (1974) [Definitive Edition 1995]
Tangerine Dream - Rubycon (1975) [Non-remastered, Reissue 1988]
Tangerine Dream - Rubycon (1975) [Definitive Edition 1995]
Tangerine Dream - Ricochet (1975) [Definitive Edition 1995]
Tangerine Dream - Stratosfear (1976) [Definitive Edition 1995]
Tangerine Dream - Sorcerer (OST) (1977) [Reissue 2011]
Tangerine Dream - Force Majeure (1979) [Reissue 1995]
Tangerine Dream - Tangram (1980)
Tangerine Dream - Pergamon (1980) [Reissue 1996]
Tangerine Dream - White Eagle (1982) [Reissue 1995]
Tangerine Dream - Logos Live (1982) [Definitive Edition 1995]
Tangerine Dream - Poland - The Warsaw Concert (1984) [Reissue 2011]
Tangerine Dream - Firestarter ...ion Picture Soundtrack] (1984)
Tangerine Dream - Underwater Sunlight (1986) [Reissue 1996]
Tangerine Dream - Legend (OST) (1986) [Reissue 1995]
Tangerine Dream - Tyger (1987) [Reissue 1996]
Tangerine Dream - Three O'Clock High [OST] (1987)
Tangerine Dream - Optical Race (1988)
Tangerine Dream - Live Miles (1988) [Reissue 2003]
Tangerine Dream - Lily On The Beach (1989)
Tangerine Dream - Melrose (1990)
Tangerine Dream - Dead Solid Perfect (OST) (1990)
Tangerine Dream - The Park Is Mine (OST) (1991)
Tangerine Dream - Rockoon (1992) [Reissue 2000]
Tangerine Dream - Deadly Care (OST) (1992)
Tangerine Dream - Quinoa (1992) [Reissue 2009]
Tangerine Dream - Catch Me If You Can (OST) (1994)
Tangerine Dream - Tyranny Of Beauty (1995)
Tangerine Dream - Goblins' Club (1996)
Tangerine Dream - Zoning (OST) (1996)
Tangerine Dream - The Analogue Space Years 1969-1973 (1998)
Tangerine Dream - The Hollywood Years Vol. 1 (1998)
Tangerine Dream - The Hollywood Years Vol. 2 (1998)
Tangerine Dream - Antique Dreams (2000)
Tangerine Dream - Soundmill Navigator (2000)
Tangerine Dream - The Bootleg Box Set Vol. 1 [7CD] (2003)
Tangerine Dream - Purgatorio (2004)
Tangerine Dream - Arizona Live '92 (2004) [Reissue 2009]
Tangerine Dream - Phaedra 2005 (2005) [Japanese Edition 2009]
Tangerine Dream - Cleveland - June 24th 1986 (2005)
Tangerine Dream - Blue Dawn (2006)
Tangerine Dream - The Essential Tangerine Dream (2006)
Tangerine Dream - Plays Tangerine Dream (2006)
Tangerine Dream - Views From A Red Train (2008)
Tangerine Dream - Booster (2008)
Tangerine Dream - Booster Vol. 2 (2008)
Tangerine Dream - The Antholog... Space Years Volume One (2008)
Tangerine Dream - Music For Sports: Cool Races (2009)
Tangerine Dream - Music For Sports: Power And Motion (2009)
Tangerine Dream - DM V (Dream Mixes V) (2010)
Tangerine Dream - The London Eye Concert (2010)
Tangerine Dream - Zeitgeist Concert [3CD Box Set] (2010)
Tangerine Dream - The Virgin Years 1974-1978 [3CD Box Set] (2011)
Tangerine Dream - The Official...ies Vol.1 [4CD Box Set] (2015)
Tangerine Dream - Live At Coventry Cathedral 1975 (2007) [DVD]
Edgar Froese - 2 Albums (1974-1995)
Edgar Froese - Ages (1978) [Reissue 1997]
Edgar Froese - Pinnacles (1983)