Tags
Language
Tags

Tangerine Dream - Firestarter [Original Motion Picture Soundtrack] (1984)

Posted By: gribovar
Tangerine Dream - Firestarter [Original Motion Picture Soundtrack] (1984)

Tangerine Dream - Firestarter [Original Motion Picture Soundtrack] (1984)
EAC Rip | APE (image+.cue+log) - 223 MB | MP3 CBR 320 kbps (LAME 3.93) - 106 MB | Covers (5 MB) included
Genre: Progressive Electronic | RAR 3% Rec. | Label: Varese Sarabande (VSD-5251)

Firestarter is an action-packed thriller with dark and sinister references. That description applies to the film and to Tangerine Dream's soundtrack. As a body of work, their film music is inconsistent and uneven. There are some outstanding scores and some real clunkers. This CD is a good one. The music has strong character and integrity and the classic TD sound with dark atmospheres.

Tracklist:
01. Crystal Voice
02. The Run
03. Testlab
04. Charly The Kid
05. Escaping Point
06. Rainbirds Move
07. Burning Force
08. Between Realities
09. Shop Territory
10. Flash Final
11. Out Of The Heat

Total time: 42:36

Exact Audio Copy V0.99 prebeta 3 from 28. July 2007

EAC extraction logfile from 6. November 2007, 17:32

Tangerine Dream / Firestarter

Used drive : PLEXTOR CD-R PX-W5224A Adapter: 1 ID: 1

Read mode : Secure
Utilize accurate stream : Yes
Defeat audio cache : Yes
Make use of C2 pointers : No

Read offset correction : 30
Overread into Lead-In and Lead-Out : Yes
Fill up missing offset samples with silence : Yes
Delete leading and trailing silent blocks : No
Null samples used in CRC calculations : Yes
Used interface : Installed external ASPI interface

Used output format : Internal WAV Routines
Sample format : 44.100 Hz; 16 Bit; Stereo


TOC of the extracted CD

Track | Start | Length | Start sector | End sector
––––––––––––––––––––––––––––-
1 | 0:00.37 | 3:13.63 | 37 | 14574
2 | 3:14.25 | 4:53.27 | 14575 | 36576
3 | 8:07.52 | 4:04.38 | 36577 | 54914
4 | 12:12.15 | 3:58.37 | 54915 | 72801
5 | 16:10.52 | 5:14.08 | 72802 | 96359
6 | 21:24.60 | 2:37.22 | 96360 | 108156
7 | 24:02.07 | 4:23.08 | 108157 | 127889
8 | 28:25.15 | 3:01.22 | 127890 | 141486
9 | 31:26.37 | 3:17.63 | 141487 | 156324
10 | 34:44.25 | 5:20.07 | 156325 | 180331
11 | 40:04.32 | 2:31.55 | 180332 | 191711


Range status and errors

Selected range

Filename C:\DAE\Tangerine Dream - Firestarter\Tangerine Dream - Firestarter.wav

Peak level 96.5 %
Range quality 100.0 %
Test CRC 6B1B7D4E
Copy CRC 6B1B7D4E
Copy OK

No errors occurred

End of status report

[CUETools log; Date: 12.10.2018 18:20:02; Version: 2.1.4]
Pregap length 00:00:37.
[CTDB TOCID: 1ulynQBOCjRhzxqgd26Xlr_fdyQ-] found.
Track | CTDB Status
1 | (42/43) Accurately ripped
2 | (43/43) Accurately ripped
3 | (43/43) Accurately ripped
4 | (42/43) Accurately ripped
5 | (42/43) Accurately ripped
6 | (42/43) Accurately ripped
7 | (42/43) Accurately ripped
8 | (42/43) Accurately ripped
9 | (42/43) Accurately ripped
10 | (42/43) Accurately ripped
11 | (42/43) Accurately ripped
[AccurateRip ID: 001205f1-009baac4-a909fc0b] found.
Track [ CRC | V2 ] Status
01 [18c8c91b|29b2171b] (08+16/36) Accurately ripped
02 [00c927b4|778dbc53] (09+16/37) Accurately ripped
03 [5716d2d1|1db726b8] (08+16/36) Accurately ripped
04 [c9785cea|e7fc93f2] (08+16/36) Accurately ripped
05 [bc3252dc|5fcd7290] (07+16/35) Accurately ripped
06 [6305bc55|79fe90db] (09+16/37) Accurately ripped
07 [cedc0157|09af0d67] (08+16/36) Accurately ripped
08 [dcca4f9d|bfcd5009] (08+16/36) Accurately ripped
09 [77321d5b|adbc7d9e] (08+16/36) Accurately ripped
10 [35b44192|0a05e2cd] (09+16/37) Accurately ripped
11 [6184e8f0|7682f816] (09+16/37) Accurately ripped
Offsetted by 6:
01 [204a26bd] (00/36) No match
02 [4db7359c] (00/37) No match
03 [ba4a5827] (00/36) No match
04 [14b69d44] (00/36) No match
05 [d9415880] (00/35) No match (V2 was not tested)
06 [b298032f] (00/37) No match
07 [fb2495b7] (00/36) No match
08 [aae28255] (00/36) No match
09 [427a8a63] (00/36) No match
10 [884d516e] (00/37) No match
11 [c911d548] (00/37) No match

Track Peak [ CRC32 ] [W/O NULL] [ LOG ]
– 96,5 [6B1B7D4E] [8D5CA8A0] CRC32
01 91,4 [64CDF6B3] [B7A42DA5]
02 64,4 [B4866671] [70F9A9DB]
03 77,5 [5C5F036B] [7D954941]
04 82,1 [C596C230] [2EFE9C18]
05 80,7 [785291DA] [67FC921A]
06 59,8 [45C6B840] [A18546A3]
07 96,5 [B6482239] [3CAFE1BC]
08 72,0 [5054A733] [14E0830D]
09 60,0 [E5101FFD] [5347D879]
10 67,2 [C81B7F93] [EF0311B3]
11 88,6 [733F641D] [9B86507C]

Thanks to the original releaser

See also:

Tangerine Dream - The Electronic Journey (2010) [10CD Box Set]
Tangerine Dream - The Dream Roots Collection [5CD Box Set] (1996)
Tangerine Dream - Electronic Meditation (1970) [Reissue 1996]
Tangerine Dream - Zeit (1972) [Reissue 1996]
Tangerine Dream - Phaedra (1974) [Definitive Edition 1995]
Tangerine Dream - Ricochet (1975) [Definitive Edition 1995]
Tangerine Dream - Stratosfear (1976) [Definitive Edition 1995]
Tangerine Dream - Force Majeure (1979) [Reissue 1995]
Tangerine Dream - Pergamon (1980) [Reissue 1996]
Tangerine Dream - White Eagle (1982) [Reissue 1995]
Tangerine Dream - Logos Live (1982) [Definitive Edition 1995]
Tangerine Dream - Legend (OST) (1986) [Reissue 1995]
Tangerine Dream - Tyger (1987) [Reissue 1996]
Tangerine Dream - Optical Race (1988)
Tangerine Dream - Live Miles (1988) [Reissue 2003]
Tangerine Dream - Lily On The Beach (1989)
Tangerine Dream - Melrose (1990)
Tangerine Dream - Dead Solid Perfect (OST) (1990)
Tangerine Dream - The Park Is Mine (OST) (1991)
Tangerine Dream - Deadly Care (OST) (1992)
Tangerine Dream - Quinoa (1992) [Reissue 2009]
Tangerine Dream - Catch Me If You Can (OST) (1994)
Tangerine Dream - Tyranny Of Beauty (1995)
Tangerine Dream - Goblins' Club (1996)
Tangerine Dream - Zoning (OST) (1996)
Tangerine Dream - The Hollywood Years Vol. 1 (1998)
Tangerine Dream - The Hollywood Years Vol. 2 (1998)
Tangerine Dream - Antique Dreams (2000)
Tangerine Dream - Soundmill Navigator (2000)
Tangerine Dream - The Bootleg Box Set Vol. 1 [7CD] (2003)
Tangerine Dream - Purgatorio (2004)
Tangerine Dream - Arizona Live '92 (2004) [Reissue 2009]
Tangerine Dream - Cleveland - June 24th 1986 (2005)
Tangerine Dream - Blue Dawn (2006)
Tangerine Dream - The Essential Tangerine Dream (2006)
Tangerine Dream - Plays Tangerine Dream (2006)
Tangerine Dream - Views From A Red Train (2008)
Tangerine Dream - Booster (2008)
Tangerine Dream - Booster Vol. 2 (2008)
Tangerine Dream - The Antholog... Space Years Volume One (2008)
Tangerine Dream - DM V (Dream Mixes V) (2010)
Tangerine Dream - The London Eye Concert (2010)
Tangerine Dream - Edgar Allan Poe's The Island Of The Fay (2011)
Tangerine Dream - The Virgin Years 1974-1978 [3CD Box Set] (2011)
Tangerine Dream - The Official...ies Vol.1 [4CD Box Set] (2015)
Edgar Froese - 2 Albums (1974-1995)
Edgar Froese - Ages (1978) [Reissue 1997]
Edgar Froese - Pinnacles (1983)