Tags
Language
Tags

Tangerine Dream - Miracle Mile [OST] (1989)

Posted By: gribovar
Tangerine Dream - Miracle Mile [OST] (1989)

Tangerine Dream - Miracle Mile [OST] (1989)
EAC Rip | APE (image+.cue+log) - 215 MB | MP3 CBR 320 kbps (LAME 3.93) - 98 MB | Covers - 6 MB
Genre: Electronic, Berlin School, Soundtrack | RAR 3% Rec. | Label: Private (260 016)

Another in the long line of soundtracks by Tangerine Dream is actually one of the strongest in concept for any film they have done. The movie has a high degree of tension and the score by T.D. does just the trick. They use mostly hard driving sequencer rhythms to maintain the tension of the film. Listeners will find that this is nearly how all of the music is composed. There is very little melody within the structures of the music. But even with this lacking, the score is very well suited and very listenable. A couple of nonsequencer tracks are also on the album and break up the hard rhythms pieces.

Tracklist:
01. Teetering Scales
02. One for the Books
03. After the Call
04. On the Spur of the Moment
05. All of a Dither
06. Final Statement
07. In Julie's Eyes
08. Running out of Time
09. If it's all Over
10 People in the News
11. Museum Walk

Total time: 41:37

Exact Audio Copy V0.99 prebeta 5 from 4. May 2009

Отчёт EAC об извлечении, выполненном 4. декабря 2009, 19:36

Tangerine Dream / Miracle Mile

Дисковод: PIONEER DVD-RW DVR-112D Adapter: 0 ID: 0

Режим чтения : Достоверность
Использование точного потока : Да
Отключение кэша аудио : Да
Использование указателей C2 : Нет

Коррекция смещения при чтении : 48
Способность читать области Lead-in и Lead-out : Нет
Заполнение пропущенных сэмплов тишиной : Да
Удаление блоков с тишиной в начале и конце : Нет
При вычислениях CRC использовались нулевые сэмплы : Да
Интерфейс : Встроенный Win32-интерфейс для Win NT/2000

Выходной формат : Monkey's Audio Lossless Encoder v3.99 DLL
Формат сэмплов : Normal Lossless Compression


TOC извлечённого CD

Трек | Старт | Длительность | Начальный сектор | Конечный сектор
––––––––––––––––––––––––––––––––––-
1 | 0:00.32 | 3:41.18 | 32 | 16624
2 | 3:41.50 | 3:07.05 | 16625 | 30654
3 | 6:48.55 | 5:13.45 | 30655 | 54174
4 | 12:02.25 | 3:03.10 | 54175 | 67909
5 | 15:05.35 | 3:26.50 | 67910 | 83409
6 | 18:32.10 | 3:16.10 | 83410 | 98119
7 | 21:48.20 | 3:15.65 | 98120 | 112809
8 | 25:04.10 | 3:31.20 | 112810 | 128654
9 | 28:35.30 | 4:36.37 | 128655 | 149391
10 | 33:11.67 | 5:11.68 | 149392 | 172784
11 | 38:23.60 | 3:12.67 | 172785 | 187251


Характеристики диапазона извлечения и сообщения об ошибках

Выбранный диапазон

Имя файла F:\Temp\Tangerine Dream - Miracle Mile.ape

Пиковый уровень 95.2 %
Качество диапазона 100.0 %
CRC теста 82172812
CRC копии 82172812
Копирование… OK

Ошибок не произошло

Конец отчёта

[CUETools log; Date: 18.11.2021 10:13:13; Version: 2.1.4]
Pregap length 00:00:32.
[CTDB TOCID: zMZUFgUwiPgYGTgmkvaCuj3.g2o-] found.
Track | CTDB Status
1 | (23/23) Accurately ripped
2 | (23/23) Accurately ripped
3 | (23/23) Accurately ripped
4 | (23/23) Accurately ripped
5 | (23/23) Accurately ripped
6 | (23/23) Accurately ripped
7 | (23/23) Accurately ripped
8 | (23/23) Accurately ripped
9 | (23/23) Accurately ripped
10 | (23/23) Accurately ripped
11 | (23/23) Accurately ripped
[AccurateRip ID: 0010cffd-009209bf-7309c00b] found.
Track [ CRC | V2 ] Status
01 [5d438e94|f482000e] (05+03/12) Accurately ripped
02 [ee926d83|348c6eb3] (05+03/12) Accurately ripped
03 [feda8c23|dc49f65e] (05+03/12) Accurately ripped
04 [7bf537de|ccd4b513] (05+03/12) Accurately ripped
05 [2538515f|b6ef52d3] (05+03/12) Accurately ripped
06 [f401c5b8|1bf9dac9] (05+03/12) Accurately ripped
07 [61a3355c|8cda6166] (05+03/12) Accurately ripped
08 [7997468b|524d7368] (05+03/12) Accurately ripped
09 [a41afe8e|52afff93] (05+03/12) Accurately ripped
10 [b959430d|d9dedc0d] (05+03/12) Accurately ripped
11 [8b0cc0d6|dff1ca5e] (05+03/12) Accurately ripped
Offsetted by -30:
01 [6a52dc76] (00/12) No match (V2 was not tested)
02 [5e82082f] (00/12) No match (V2 was not tested)
03 [05c0c1bf] (00/12) No match (V2 was not tested)
04 [e47ae0d2] (00/12) No match (V2 was not tested)
05 [5db2259b] (00/12) No match (V2 was not tested)
06 [1a35a046] (00/12) No match (V2 was not tested)
07 [68dd9f36] (00/12) No match (V2 was not tested)
08 [758c1379] (00/12) No match (V2 was not tested)
09 [97961cde] (00/12) No match (V2 was not tested)
10 [ea60192b] (00/12) No match (V2 was not tested)
11 [0376e3c5] (00/12) No match (V2 was not tested)

Track Peak [ CRC32 ] [W/O NULL] [ LOG ]
– 95,2 [82172812] [A0EE9996] CRC32
01 93,5 [5B9F06BB] [0415F037]
02 58,7 [C2FF3B3A] [E210F047]
03 89,9 [1514A0B9] [558D7D62]
04 52,0 [5626A9BC] [EC4205C9]
05 95,2 [58A5B79D] [8E22C5FB]
06 69,9 [C55BA7A2] [A718FC9C]
07 81,3 [DEE79243] [B4E5FC8D]
08 63,7 [859CB630] [57D1D490]
09 59,7 [802B1506] [3B660A5A]
10 93,9 [C562C152] [A314B8C5]
11 51,0 [F7556A80] [C792C99D]

Thanks to electroself