Tags
Language
Tags

Tangerine Dream - Phaedra (1974) [Original Edition]

Posted By:
Tangerine Dream - Phaedra (1974) [Original Edition]

Tangerine Dream - Phaedra (1974) [Original Edition]
EAC Rip | FLAC (image+.cue+log) - 168 MB | MP3 CBR 320 kbps (LAME 3.93) - 89 MB | Covers - 83 MB
Genre: Progressive Electronic | RAR 3% Rec. | Label: Virgin Records America (V2-86064), 1985

In 1973 Tangerine Dream signed with Virgin Records, recorded Phaedra and embarked on the most commercially successful and critically lauded phase of their existence. What made Phaedra different from Tangerine Dream's earlier albums was the use of the sequencer (the band had used sequencers on their previous recording, Green Desert, but that album was not released until much later), a device that was a crucial component of the band's classic style. Phaedra is a landmark album of 1970s electronic music and was also Tangerine Dream's most accessible and "musical" to date.

Tracklist:
01. Phaedra
02. Mysterious Semblance At The Strand Of Nightmares
03. Movements Of A Visionary
04. Sequent C'

Total time: 38:02

Exact Audio Copy V1.0 beta 1 from 15. November 2010

EAC extraction logfile from 22. February 2011, 18:18

Tangerine Dream / Phaedra

Used drive : _NEC DVD_RW ND-3550A Adapter: 1 ID: 0

Read mode : Secure
Utilize accurate stream : Yes
Defeat audio cache : Yes
Make use of C2 pointers : No

Read offset correction : 48
Overread into Lead-In and Lead-Out : No
Fill up missing offset samples with silence : Yes
Delete leading and trailing silent blocks : No
Null samples used in CRC calculations : Yes
Used interface : Native Win32 interface for Win NT & 2000

Used output format : User Defined Encoder
Selected bitrate : 768 kBit/s
Quality : High
Add ID3 tag : No
Command line compressor : C:\Program Files\Exact Audio Copy\FLAC\FLAC.EXE
Additional command line options : -T "DATE=%y" -T "GENRE=%m" -8 -V %s


TOC of the extracted CD

Track | Start | Length | Start sector | End sector
––––––––––––––––––––––––––––-
1 | 0:00.62 | 17:45.73 | 62 | 80009
2 | 17:46.60 | 9:55.15 | 80010 | 124649
3 | 27:42.00 | 8:01.50 | 124650 | 160774
4 | 35:43.50 | 2:18.17 | 160775 | 171141


Range status and errors

Selected range

Filename F:\For Torrent\Phaedra\Tangerine Dream - Phaedra.wav

Peak level 95.5 %
Extraction speed 0.3 X
Range quality 100.0 %
Test CRC 13390F4C
Copy CRC 13390F4C
Copy OK

No errors occurred


AccurateRip summary

Track 1 accurately ripped (confidence 4) [3E9F8807]
Track 2 accurately ripped (confidence 4) [0F94D2F1]
Track 3 accurately ripped (confidence 4) [CE142F0E]
Track 4 accurately ripped (confidence 4) [E27AD350]

All tracks accurately ripped

End of status report

[CUETools log; Date: 14.02.2020 23:05:05; Version: 2.1.4]
Pregap length 00:00:62.
[CTDB TOCID: J3Q0kaRIOtrT_zS1R8Ypmnnnt_4-] found.
Track | CTDB Status
1 | (101/106) Accurately ripped
2 | (101/106) Accurately ripped
3 | (103/106) Accurately ripped
4 | (104/106) Accurately ripped
[AccurateRip ID: 0008303f-001f04ca-2e08e904] found.
Track [ CRC | V2 ] Status
01 [3e9f8807|b01ed24a] (04+12/75) Accurately ripped
02 [0f94d2f1|61e07108] (04+12/75) Accurately ripped
03 [ce142f0e|4a1ce7d7] (04+12/75) Accurately ripped
04 [e27ad350|6b430ffa] (04+13/76) Accurately ripped
Offsetted by -2181:
01 [ff2d569b] (06/75) Accurately ripped
02 [ae79fec6] (06/75) Accurately ripped
03 [09d81b34] (06/75) Accurately ripped
04 [1a4812c7] (06/76) Accurately ripped
Offsetted by -1517:
01 [512c1e9d] (12/75) Accurately ripped
02 [8c60f7b0] (12/75) Accurately ripped
03 [0ac433ee] (12/75) Accurately ripped
04 [e2145cf5] (12/76) Accurately ripped
Offsetted by -681:
01 [6d8a0e6c] (00/75) No match (V2 was not tested)
02 [bde4a099] (00/75) No match (V2 was not tested)
03 [9353d528] (00/75) No match (V2 was not tested)
04 [ce6c8e43] (00/76) No match (V2 was not tested)

Track Peak [ CRC32 ] [W/O NULL] [ LOG ]
– 95,5 [13390F4C] [01C79AF8] CRC32
01 93,1 [CAC93CE6] [6DC76633]
02 95,5 [2B323780] [3A4C9D22]
03 88,6 [F2F7B1AC] [52C4359E]
04 77,7 [258CAAFA] [FCBB12B6]

Thanks to spock82

See also:
Tangerine Dream - The Electronic Journey (2010) [10CD Box Set]
Tangerine Dream - The Dream Roots Collection [5CD Box Set] (1996)
Tangerine Dream - Electronic Meditation (1970) [Reissue 1996]
Tangerine Dream - Alpha Centauri (1971) [Reissue 2011]
Tangerine Dream - Zeit (1972) [Reissue 1996]
Tangerine Dream - Atem (1973) [Reissue 2011]
Tangerine Dream - Phaedra (1974) [Definitive Edition 1995]
Tangerine Dream - Ricochet (1975) [Definitive Edition 1995]
Tangerine Dream - Stratosfear (1976) [Definitive Edition 1995]
Tangerine Dream - Sorcerer (OST) (1977) [Reissue 2011]
Tangerine Dream - Force Majeure (1979) [Reissue 1995]
Tangerine Dream - Pergamon (1980) [Reissue 1996]
Tangerine Dream - White Eagle (1982) [Reissue 1995]
Tangerine Dream - Logos Live (1982) [Definitive Edition 1995]
Tangerine Dream - Poland - The Warsaw Concert (1984) [Reissue 2011]
Tangerine Dream - Firestarter ...ion Picture Soundtrack] (1984)
Tangerine Dream - Legend (OST) (1986) [Reissue 1995]
Tangerine Dream - Tyger (1987) [Reissue 1996]
Tangerine Dream - Optical Race (1988)
Tangerine Dream - Live Miles (1988) [Reissue 2003]
Tangerine Dream - Lily On The Beach (1989)
Tangerine Dream - Melrose (1990)
Tangerine Dream - Dead Solid Perfect (OST) (1990)
Tangerine Dream - The Park Is Mine (OST) (1991)
Tangerine Dream - Deadly Care (OST) (1992)
Tangerine Dream - Quinoa (1992) [Reissue 2009]
Tangerine Dream - Catch Me If You Can (OST) (1994)
Tangerine Dream - Tyranny Of Beauty (1995)
Tangerine Dream - Goblins' Club (1996)
Tangerine Dream - Zoning (OST) (1996)
Tangerine Dream - The Analogue Space Years 1969-1973 (1998)
Tangerine Dream - The Hollywood Years Vol. 1 (1998)
Tangerine Dream - The Hollywood Years Vol. 2 (1998)
Tangerine Dream - Antique Dreams (2000)
Tangerine Dream - Soundmill Navigator (2000)
Tangerine Dream - The Bootleg Box Set Vol. 1 [7CD] (2003)
Tangerine Dream - Purgatorio (2004)
Tangerine Dream - Arizona Live '92 (2004) [Reissue 2009]
Tangerine Dream - Phaedra 2005 (2005) [Japanese Edition 2009]
Tangerine Dream - Cleveland - June 24th 1986 (2005)
Tangerine Dream - Blue Dawn (2006)
Tangerine Dream - The Essential Tangerine Dream (2006)
Tangerine Dream - Plays Tangerine Dream (2006)
Tangerine Dream - Views From A Red Train (2008)
Tangerine Dream - Booster (2008)
Tangerine Dream - Booster Vol. 2 (2008)
Tangerine Dream - The Antholog... Space Years Volume One (2008)
Tangerine Dream - Music For Sports: Cool Races (2009)
Tangerine Dream - Music For Sports: Power And Motion (2009)
Tangerine Dream - DM V (Dream Mixes V) (2010)
Tangerine Dream - The London Eye Concert (2010)
Tangerine Dream - The Virgin Years 1974-1978 [3CD Box Set] (2011)
Tangerine Dream - The Official...ies Vol.1 [4CD Box Set] (2015)
Edgar Froese - 2 Albums (1974-1995)
Edgar Froese - Ages (1978) [Reissue 1997]
Edgar Froese - Pinnacles (1983)