Tags
Language
Tags

Tangerine Dream - Purgatorio (2004) (Repost)

Posted By:
Tangerine Dream - Purgatorio (2004) (Repost)

Tangerine Dream - Purgatorio (2004)
EAC Rip | APE (image+.cue+log) - 874 MB | MP3 CBR 320 kbps (LAME 3.93) - 311 MB | Covers - 35 MB
Genre: Progressive Electronic | RAR 3% Rec. | Label: TDI Music (TDI CD036)

"Purgatorio" is the second part of Tangerine Dream's three part interpretation of Dante's "La Divina Commedia". Unlike the other two parts of the trilogy which were recorded live, this double CD set, running to over 130 minutes, is a studio recording. Once again (as with "Inferno"), the piece is primarily in the form of an oratorio, with seven guest female vocalists. These singers are a mixture of altos and sopranos, all with beautiful, classically trained voices.

CD 1 Tracklist:
01. Above The Great Dry Land
02. Chasing The Bad Seed
03. Slave To The Gods
04. Hope And Glory
05. Sun Son's Seal (Part One)
06. Beyond All Suns
07. Sisyphus
08. All The Steps To Heaven
09. Mountain Of Destiny

Total time: 01:12:01

CD 2 Tracklist:
01. The Glowing Zodiac Wheel
02. Modern Cave Men
03. Death Of Medusa
04. Blinded By The World's Desire
05. Sun Son's Seal (Part Two)
06. Soulgate
07. Till The End Of Silence
08. Prison Of Paradise
09. Spirit Spiral

Total time: 59:55

Exact Audio Copy V0.99 prebeta 5 from 4. May 2009

EAC extraction logfile from 6. December 2009, 2:45

Tangerine Dream / Purgatorio

Used drive : ASUS DRW-1814BL Adapter: 0 ID: 0

Read mode : Secure
Utilize accurate stream : Yes
Defeat audio cache : Yes
Make use of C2 pointers : No

Read offset correction : 6
Overread into Lead-In and Lead-Out : No
Fill up missing offset samples with silence : Yes
Delete leading and trailing silent blocks : No
Null samples used in CRC calculations : Yes
Used interface : Native Win32 interface for Win NT & 2000

Used output format : Internal WAV Routines
Sample format : 44.100 Hz; 16 Bit; Stereo


TOC of the extracted CD

Track | Start | Length | Start sector | End sector
––––––––––––––––––––––––––––-
1 | 0:00.00 | 6:19.57 | 0 | 28481
2 | 6:19.57 | 8:48.37 | 28482 | 68118
3 | 15:08.19 | 6:31.53 | 68119 | 97496
4 | 21:39.72 | 6:44.07 | 97497 | 127803
5 | 28:24.04 | 8:21.28 | 127804 | 165406
6 | 36:45.32 | 6:34.09 | 165407 | 194965
7 | 43:19.41 | 4:37.67 | 194966 | 215807
8 | 47:57.33 | 13:12.28 | 215808 | 275235
9 | 61:09.61 | 10:51.46 | 275236 | 324106


Range status and errors

Selected range

Filename D:\EAC\Tangerine Dream - Purgatorio (CD 1).wav

Peak level 100.0 %
Range quality 100.0 %
Test CRC B5C2FC0C
Copy CRC B5C2FC0C
Copy OK

No errors occurred


AccurateRip summary

Track 1 accurately ripped (confidence 3) [25A10698]
Track 2 accurately ripped (confidence 3) [FC89D25A]
Track 3 accurately ripped (confidence 3) [EE30AB8E]
Track 4 accurately ripped (confidence 3) [6B931469]
Track 5 accurately ripped (confidence 3) [0AEE1738]
Track 6 accurately ripped (confidence 3) [400312B7]
Track 7 accurately ripped (confidence 3) [DD5B3369]
Track 8 accurately ripped (confidence 2) [AC281549]
Track 9 accurately ripped (confidence 2) [02ED7828]

All tracks accurately ripped

End of status report

[CUETools log; Date: 11.12.2017 0:43:44; Version: 2.1.4]
[CTDB TOCID: al9.Aww92SRdY18fzlyMFalneBA-] found.
Track | CTDB Status
1 | (15/16) Accurately ripped
2 | (15/16) Accurately ripped
3 | (15/16) Accurately ripped
4 | (15/16) Accurately ripped
5 | (15/16) Accurately ripped
6 | (15/16) Accurately ripped
7 | (15/16) Accurately ripped
8 | (15/16) Accurately ripped
9 | (16/16) Accurately ripped
[AccurateRip ID: 0016d952-00a940e0-6a10e109] found.
Track [ CRC | V2 ] Status
01 [25a10698|3f977d76] (07+05/14) Accurately ripped
02 [fc89d25a|4748e6f1] (07+05/14) Accurately ripped
03 [ee30ab8e|1fa18eb8] (07+05/14) Accurately ripped
04 [6b931469|51d8fa87] (07+05/14) Accurately ripped
05 [0aee1738|99fb85e1] (07+05/14) Accurately ripped
06 [400312b7|43e45b62] (07+05/14) Accurately ripped
07 [dd5b3369|5d54225f] (07+05/14) Accurately ripped
08 [ac281549|bbec32a7] (06+05/13) Accurately ripped
09 [02ed7828|e7d80e45] (06+05/13) Accurately ripped
Offsetted by -664:
01 [c88e89ab] (02/14) Accurately ripped
02 [37736110] (02/14) Accurately ripped
03 [e53d1d63] (02/14) Accurately ripped
04 [5c15eb82] (02/14) Accurately ripped
05 [d0d81861] (02/14) Accurately ripped
06 [16a75049] (02/14) Accurately ripped
07 [9b919591] (02/14) Accurately ripped
08 [1024694e] (02/13) Accurately ripped
09 [e1e69e45] (02/13) Accurately ripped

Track Peak [ CRC32 ] [W/O NULL] [ LOG ]
– 100,0 [B5C2FC0C] [76D4B299] CRC32
01 99,7 [029BE12B] [6D202577]
02 99,9 [6C6C00ED] [AB7B34BC]
03 99,0 [BBDBF6D2] [B85467EF]
04 98,3 [64632A03] [3FBF4D1E]
05 100,0 [773449D0] [3CB3AD07]
06 99,0 [F8BE0B40] [9ABB480B]
07 100,0 [D69E7CDC] [FAAFD94E]
08 98,6 [CD8CA7D1] [89AC4128]
09 99,7 [A1A94D33] [681DBB72]

Exact Audio Copy V0.99 prebeta 5 from 4. May 2009

EAC extraction logfile from 6. December 2009, 3:30

Tangerine Dream / Purgatorio

Used drive : ASUS DRW-1814BL Adapter: 0 ID: 0

Read mode : Secure
Utilize accurate stream : Yes
Defeat audio cache : Yes
Make use of C2 pointers : No

Read offset correction : 6
Overread into Lead-In and Lead-Out : No
Fill up missing offset samples with silence : Yes
Delete leading and trailing silent blocks : No
Null samples used in CRC calculations : Yes
Used interface : Native Win32 interface for Win NT & 2000

Used output format : Internal WAV Routines
Sample format : 44.100 Hz; 16 Bit; Stereo


TOC of the extracted CD

Track | Start | Length | Start sector | End sector
––––––––––––––––––––––––––––-
1 | 0:00.00 | 6:08.50 | 0 | 27649
2 | 6:08.50 | 5:02.59 | 27650 | 50358
3 | 11:11.34 | 7:23.55 | 50359 | 83638
4 | 18:35.14 | 6:22.02 | 83639 | 112290
5 | 24:57.16 | 8:27.69 | 112291 | 150384
6 | 33:25.10 | 7:59.71 | 150385 | 186380
7 | 41:25.06 | 5:17.10 | 186381 | 210165
8 | 46:42.16 | 5:39.46 | 210166 | 235636
9 | 52:21.62 | 7:33.42 | 235637 | 269653


Range status and errors

Selected range

Filename D:\EAC\Tangerine Dream - Purgatorio (CD 2).wav

Peak level 100.0 %
Range quality 100.0 %
Test CRC BB8A835E
Copy CRC BB8A835E
Copy OK

No errors occurred


AccurateRip summary

Track 1 accurately ripped (confidence 3) [71075602]
Track 2 accurately ripped (confidence 3) [ACCE9304]
Track 3 accurately ripped (confidence 2) [7B358A80]
Track 4 accurately ripped (confidence 3) [B2334012]
Track 5 accurately ripped (confidence 3) [CD12B6F4]
Track 6 accurately ripped (confidence 3) [F89B9682]
Track 7 accurately ripped (confidence 3) [63A992CE]
Track 8 accurately ripped (confidence 3) [1E3BE653]
Track 9 accurately ripped (confidence 3) [1EB48F71]

All tracks accurately ripped

End of status report

[CUETools log; Date: 11.12.2017 0:45:12; Version: 2.1.4]
[CTDB TOCID: m12iDRHlzn3yH6vNazBJIlVJNAM-] found.
Track | CTDB Status
1 | (16/17) Accurately ripped
2 | (16/17) Accurately ripped
3 | (16/17) Accurately ripped
4 | (16/17) Accurately ripped
5 | (16/17) Accurately ripped
6 | (16/17) Accurately ripped
7 | (16/17) Accurately ripped
8 | (16/17) Accurately ripped
9 | (17/17) Accurately ripped
[AccurateRip ID: 00143c52-0095a85f-740e0b09] found.
Track [ CRC | V2 ] Status
01 [71075602|16d9e03f] (08+05/15) Accurately ripped
02 [acce9304|59acdfab] (08+05/15) Accurately ripped
03 [7b358a80|c1c4713d] (07+05/14) Accurately ripped
04 [b2334012|07696878] (08+05/15) Accurately ripped
05 [cd12b6f4|0b465c31] (08+05/15) Accurately ripped
06 [f89b9682|d85cabe2] (08+05/15) Accurately ripped
07 [63a992ce|9805bf2b] (08+05/15) Accurately ripped
08 [1e3be653|ad8dc066] (08+05/15) Accurately ripped
09 [1eb48f71|1a0d43f9] (08+05/15) Accurately ripped
Offsetted by -664:
01 [262e7b51] (02/15) Accurately ripped
02 [478abe13] (02/15) Accurately ripped
03 [acbe8fba] (02/14) Accurately ripped
04 [357ec4df] (02/15) Accurately ripped
05 [6d3d2192] (02/15) Accurately ripped
06 [532fa362] (02/15) Accurately ripped
07 [bbc7dc2e] (02/15) Accurately ripped
08 [40ee571e] (02/15) Accurately ripped
09 [640b141f] (02/15) Accurately ripped

Track Peak [ CRC32 ] [W/O NULL] [ LOG ]
– 100,0 [BB8A835E] [E642F5E7] CRC32
01 80,8 [29BC62B2] [EFA3ACAC]
02 91,9 [C7654ED2] [C70A9E92]
03 95,2 [1074F68A] [BD05AF16]
04 92,9 [DA8616F2] [5DD322C2]
05 100,0 [68324A32] [F95D6253]
06 90,5 [C2BFEEFD] [210ADFCF]
07 91,3 [EA1FDCFD] [851C991E]
08 88,2 [DD117C65] [4F535900]
09 98,8 [7906C00B] [E62D84E2]

Thanks to original releaser