Tags
Language
Tags

Tangerine Dream - The Analogue Space Years 1969-1973 (1998)

Posted By:
Tangerine Dream - The Analogue Space Years 1969-1973 (1998)

Tangerine Dream - The Analogue Space Years 1969-1973 (1998)
EAC Rip | APE (image+.cue+log) - 511 MB | MP3 CBR 320 kbps (LAME 3.93) - 293 MB | Covers included
Genre: Progressive Electronic, Ambient | RAR 3% Rec. | Label: Purple Pyramid (CLP 0227-2)

The Analogue Space Years '69-'73 is a definitive overview of Tangerine Dream's early, formative years, collecting highlights from the group's first four albums (Electronic Meditation, Alpha Centauri, Zeit, and Atem). Though this wasn't their most consistent or effective period, and their mid- to late-'70s work is far more essential, it's a handy way for curious fans to discover essentially everything they need to know about Tangerine Dream's early career.

CD 1 Tracklist:
01. Ashes To Ashes
02. Ziet
03. Atem
04. Green Desert
05. Genesis

Total time: 01:06:50

CD 2 Tracklist:
01. Alpha Centauri
02. Astral Voyager
03. Wahn
04. Circulation Of Events
05. Nebulous Dawn

Total time: 57:22

Exact Audio Copy V0.99 prebeta 5 from 4. May 2009

EAC extraction logfile from 7. February 2010, 0:58

Tangerine Dream / The Analogue Space Years

Used drive : ASUS DRW-1814BL Adapter: 0 ID: 0

Read mode : Secure
Utilize accurate stream : Yes
Defeat audio cache : Yes
Make use of C2 pointers : No

Read offset correction : 6
Overread into Lead-In and Lead-Out : No
Fill up missing offset samples with silence : Yes
Delete leading and trailing silent blocks : No
Null samples used in CRC calculations : Yes
Used interface : Native Win32 interface for Win NT & 2000

Used output format : Internal WAV Routines
Sample format : 44.100 Hz; 16 Bit; Stereo


TOC of the extracted CD

Track | Start | Length | Start sector | End sector
––––––––––––––––––––––––––––-
1 | 0:00.00 | 4:00.60 | 0 | 18059
2 | 4:00.60 | 17:00.35 | 18060 | 94594
3 | 21:01.20 | 20:24.66 | 94595 | 186460
4 | 41:26.11 | 19:27.63 | 186461 | 274048
5 | 60:53.74 | 5:56.09 | 274049 | 300757


Range status and errors

Selected range

Filename D:\EAC\Tangerine Dream - The Analogue Space Years (CD 1).wav

Peak level 100.0 %
Range quality 100.0 %
Test CRC 6724EF1F
Copy CRC 6724EF1F
Copy OK

No errors occurred


AccurateRip summary

Track 1 accurately ripped (confidence 1) [CA4C2DF6]
Track 2 accurately ripped (confidence 1) [2ADBEC6E]
Track 3 accurately ripped (confidence 1) [7CB89335]
Track 4 accurately ripped (confidence 1) [E6ADA90A]
Track 5 accurately ripped (confidence 1) [8C5FD5E7]

All tracks accurately ripped

End of status report

[CUETools log; Date: 12.05.2019 13:45:16; Version: 2.1.4]
[CTDB TOCID: 6tuAgdwtcHyTmNBudwDUPjD0X6Y-] found.
Track | CTDB Status
1 | (12/12) Accurately ripped
2 | (12/12) Accurately ripped
3 | (12/12) Accurately ripped
4 | (12/12) Accurately ripped
5 | (11/12) Accurately ripped
[AccurateRip ID: 000d55c3-0040b49f-3f0faa05] found.
Track [ CRC | V2 ] Status
01 [ca4c2df6|55412031] (3+4/7) Accurately ripped
02 [2adbec6e|306d468d] (2+4/6) Accurately ripped
03 [7cb89335|178ea6ca] (3+3/6) Accurately ripped
04 [e6ada90a|262239a6] (3+4/7) Accurately ripped
05 [8c5fd5e7|a6ae839b] (3+4/7) Accurately ripped

Track Peak [ CRC32 ] [W/O NULL] [ LOG ]
– 100,0 [6724EF1F] [6899A3F7] CRC32
01 98,1 [AE283002] [930B0B97]
02 100,0 [B908628E] [52DF0A9F]
03 74,9 [AC3F15D1] [2C8BB059]
04 98,2 [F542B8D9] [ACADE6A8]
05 74,6 [2CEC1D22] [1EE1DAC4]

Exact Audio Copy V0.99 prebeta 5 from 4. May 2009

EAC extraction logfile from 7. February 2010, 1:44

Tangerine Dream / The Analogue Space Years

Used drive : ASUS DRW-1814BL Adapter: 0 ID: 0

Read mode : Secure
Utilize accurate stream : Yes
Defeat audio cache : Yes
Make use of C2 pointers : No

Read offset correction : 6
Overread into Lead-In and Lead-Out : No
Fill up missing offset samples with silence : Yes
Delete leading and trailing silent blocks : No
Null samples used in CRC calculations : Yes
Used interface : Native Win32 interface for Win NT & 2000

Used output format : Internal WAV Routines
Sample format : 44.100 Hz; 16 Bit; Stereo


TOC of the extracted CD

Track | Start | Length | Start sector | End sector
––––––––––––––––––––––––––––-
1 | 0:00.00 | 22:04.09 | 0 | 99308
2 | 22:04.09 | 7:07.06 | 99309 | 131339
3 | 29:11.15 | 4:30.09 | 131340 | 151598
4 | 33:41.24 | 5:51.59 | 151599 | 177982
5 | 39:33.08 | 17:49.07 | 177983 | 258164


Range status and errors

Selected range

Filename D:\EAC\Tangerine Dream - The Analogue Space Years (CD 2).wav

Peak level 98.5 %
Range quality 99.9 %
Test CRC EC4803A1
Copy CRC EC4803A1
Copy OK

No errors occurred


AccurateRip summary

Track 1 accurately ripped (confidence 1) [17A558C5]
Track 2 accurately ripped (confidence 1) [52AA2434]
Track 3 accurately ripped (confidence 1) [5661C3D1]
Track 4 accurately ripped (confidence 1) [D04CE8F2]
Track 5 accurately ripped (confidence 1) [4772B6B3]

All tracks accurately ripped

End of status report

[CUETools log; Date: 12.05.2019 13:46:31; Version: 2.1.4]
[CTDB TOCID: YYdqYZTs1X1.jb5HBgic_TxIuKA-] found.
Track | CTDB Status
1 | (13/13) Accurately ripped
2 | (13/13) Accurately ripped
3 | (13/13) Accurately ripped
4 | (13/13) Accurately ripped
5 | (13/13) Accurately ripped
[AccurateRip ID: 000c7cdc-003782b4-360d7205] found.
Track [ CRC | V2 ] Status
01 [17a558c5|19ee258d] (3+4/7) Accurately ripped
02 [52aa2434|2fbc02c6] (3+4/7) Accurately ripped
03 [5661c3d1|75294fee] (3+4/7) Accurately ripped
04 [d04ce8f2|80e01679] (3+4/7) Accurately ripped
05 [4772b6b3|120227f1] (3+4/7) Accurately ripped

Track Peak [ CRC32 ] [W/O NULL] [ LOG ]
– 98,5 [EC4803A1] [1F03A3F7] CRC32
01 77,8 [1A7A9C6A] [A6E7B221]
02 98,0 [F7FD2602] [D69957DA]
03 83,2 [855E97D9] [3993A12A]
04 98,5 [B8B49760] [0351E8AB]
05 67,3 [2EA83311] [81DB840F]

Thanks to the original releaser

See also:

Tangerine Dream - The Electronic Journey (2010) [10CD Box Set]
Tangerine Dream - The Dream Roots Collection [5CD Box Set] (1996)
Tangerine Dream - Electronic Meditation (1970) [Reissue 1996]
Tangerine Dream - Zeit (1972) [Reissue 1996]
Tangerine Dream - Phaedra (1974) [Definitive Edition 1995]
Tangerine Dream - Ricochet (1975) [Definitive Edition 1995]
Tangerine Dream - Stratosfear (1976) [Definitive Edition 1995]
Tangerine Dream - Force Majeure (1979) [Reissue 1995]
Tangerine Dream - Pergamon (1980) [Reissue 1996]
Tangerine Dream - White Eagle (1982) [Reissue 1995]
Tangerine Dream - Logos Live (1982) [Definitive Edition 1995]
Tangerine Dream - Firestarter ...ion Picture Soundtrack] (1984)
Tangerine Dream - Legend (OST) (1986) [Reissue 1995]
Tangerine Dream - Tyger (1987) [Reissue 1996]
Tangerine Dream - Optical Race (1988)
Tangerine Dream - Live Miles (1988) [Reissue 2003]
Tangerine Dream - Lily On The Beach (1989)
Tangerine Dream - Melrose (1990)
Tangerine Dream - Dead Solid Perfect (OST) (1990)
Tangerine Dream - The Park Is Mine (OST) (1991)
Tangerine Dream - Deadly Care (OST) (1992)
Tangerine Dream - Quinoa (1992) [Reissue 2009]
Tangerine Dream - Catch Me If You Can (OST) (1994)
Tangerine Dream - Tyranny Of Beauty (1995)
Tangerine Dream - Goblins' Club (1996)
Tangerine Dream - Zoning (OST) (1996)
Tangerine Dream - The Hollywood Years Vol. 1 (1998)
Tangerine Dream - The Hollywood Years Vol. 2 (1998)
Tangerine Dream - Antique Dreams (2000)
Tangerine Dream - Soundmill Navigator (2000)
Tangerine Dream - The Bootleg Box Set Vol. 1 [7CD] (2003)
Tangerine Dream - Purgatorio (2004)
Tangerine Dream - Arizona Live '92 (2004) [Reissue 2009]
Tangerine Dream - Cleveland - June 24th 1986 (2005)
Tangerine Dream - Blue Dawn (2006)
Tangerine Dream - The Essential Tangerine Dream (2006)
Tangerine Dream - Plays Tangerine Dream (2006)
Tangerine Dream - Views From A Red Train (2008)
Tangerine Dream - Booster (2008)
Tangerine Dream - Booster Vol. 2 (2008)
Tangerine Dream - The Antholog... Space Years Volume One (2008)
Tangerine Dream - DM V (Dream Mixes V) (2010)
Tangerine Dream - The London Eye Concert (2010)
Tangerine Dream - Edgar Allan Poe's The Island Of The Fay (2011)
Tangerine Dream - The Virgin Years 1974-1978 [3CD Box Set] (2011)
Tangerine Dream - The Official...ies Vol.1 [4CD Box Set] (2015)
Edgar Froese - 2 Albums (1974-1995)
Edgar Froese - Ages (1978) [Reissue 1997]
Edgar Froese - Pinnacles (1983)