Tags
Language
Tags

Tangerine Dream - Tyger (1987) [Reissue 1996] (Repost)

Posted By: gribovar
Tangerine Dream - Tyger (1987) [Reissue 1996] (Repost)

Tangerine Dream - Tyger (1987) [Reissue 1996]
EAC Rip | APE (image+.cue+log) - 288 MB | MP3 CBR 320 kbps (LAME 3.93) - 111 MB | Covers - 23 MB
Genre: Electronic | RAR 3% Rec. | Label: Castle (ESM CD 367)

Tyger sees Tangerine Dream set the poetry of William Blake to music. While the combination of styles will inevitably be off-putting to some - particularly stuffy Blake fans - the results are surprisingly evocative and listenable. Tyger might not be one of the most accessible albums within Tangerine Dream's catalog, but for those wishing to explore the group's more adventurous side, it's a worthwhile listen.

Tracklist:
01. Tyger
02. London
03. Alchemy Of The Heart
04. Smile
05. 21st Century Common Man, Part One
06. 21st Century Common Man, Part Two

Total time: 47:28

Exact Audio Copy V0.99 prebeta 5 from 4. May 2009

EAC extraction logfile from 27. December 2009, 3:54

Tangerine Dream / Tyger

Used drive : ASUS DRW-1814BL Adapter: 0 ID: 0

Read mode : Secure
Utilize accurate stream : Yes
Defeat audio cache : Yes
Make use of C2 pointers : No

Read offset correction : 6
Overread into Lead-In and Lead-Out : No
Fill up missing offset samples with silence : Yes
Delete leading and trailing silent blocks : No
Null samples used in CRC calculations : Yes
Used interface : Native Win32 interface for Win NT & 2000

Used output format : Internal WAV Routines
Sample format : 44.100 Hz; 16 Bit; Stereo


TOC of the extracted CD

Track | Start | Length | Start sector | End sector
––––––––––––––––––––––––––––-
1 | 0:00.00 | 5:49.10 | 0 | 26184
2 | 5:49.10 | 14:24.10 | 26185 | 90994
3 | 20:13.20 | 12:15.50 | 90995 | 146169
4 | 32:28.70 | 6:11.00 | 146170 | 173994
5 | 38:39.70 | 4:49.25 | 173995 | 195694
6 | 43:29.20 | 3:58.65 | 195695 | 213609


Range status and errors

Selected range

Filename D:\EAC\Tangerine Dream - Tyger.wav

Peak level 98.5 %
Range quality 99.9 %
Test CRC 6B10577D
Copy CRC 6B10577D
Copy OK

No errors occurred


AccurateRip summary

Track 1 accurately ripped (confidence 4) [36C6FE55]
Track 2 accurately ripped (confidence 4) [7806E6E5]
Track 3 accurately ripped (confidence 4) [40406A21]
Track 4 accurately ripped (confidence 4) [D7EFBBB9]
Track 5 accurately ripped (confidence 4) [E43B89C9]
Track 6 accurately ripped (confidence 4) [E98B2770]

All tracks accurately ripped

End of status report

[CUETools log; Date: 10.10.2018 18:31:37; Version: 2.1.4]
[CTDB TOCID: p.8PQkpysrFHw22RykIaNSDKMqk-] found.
Track | CTDB Status
1 | (45/48) Accurately ripped
2 | (44/48) Accurately ripped
3 | (45/48) Accurately ripped
4 | (45/48) Accurately ripped
5 | (45/48) Accurately ripped
6 | (45/48) Accurately ripped
[AccurateRip ID: 000ceb3a-0043e4ab-350b2006] found.
Track [ CRC | V2 ] Status
01 [36c6fe55|5a9be2ac] (09+11/38) Accurately ripped
02 [7806e6e5|0d2755eb] (09+12/39) Accurately ripped
03 [40406a21|68598518] (09+12/39) Accurately ripped
04 [d7efbbb9|07c70c4e] (09+12/39) Accurately ripped
05 [e43b89c9|35c6d135] (09+12/39) Accurately ripped
06 [e98b2770|e2d6c215] (09+12/39) Accurately ripped
Offsetted by -2084:
01 [675e9a15] (03/38) Accurately ripped
02 [3b5d7121] (03/39) Accurately ripped
03 [691fa625] (03/39) Accurately ripped
04 [fbcf700d] (03/39) Accurately ripped
05 [416e74d5] (03/39) Accurately ripped
06 [6fe0a0ac] (03/39) Accurately ripped
Offsetted by -269:
01 [0c482305] (04/38) Accurately ripped
02 [a4c5c9d0] (04/39) Accurately ripped
03 [03120d06] (04/39) Accurately ripped
04 [b4079282] (04/39) Accurately ripped
05 [2cb33f38] (04/39) Accurately ripped
06 [276b730d] (04/39) Accurately ripped
Offsetted by -266:
01 [f40320b5] (02/38) Accurately ripped
02 [4702784b] (02/39) Accurately ripped
03 [0f2c435b] (02/39) Accurately ripped
04 [9ca3617b] (02/39) Accurately ripped
05 [dafff2f7] (02/39) Accurately ripped
06 [d207e09a] (02/39) Accurately ripped

Track Peak [ CRC32 ] [W/O NULL] [ LOG ]
– 98,5 [6B10577D] [9FCFD208] CRC32
01 98,1 [D6F1BB32] [4CEED679]
02 98,3 [1F6DD306] [BBD7198D]
03 98,0 [0482720D] [59F92587]
04 97,5 [572CDD4F] [1C65BEB6]
05 98,1 [23AD48E9] [6AE59055]
06 98,5 [5F55D018] [7CDBB771]

Thanks to x777x

See also:

Tangerine Dream - The Electronic Journey (2010) [10CD Box Set]
Tangerine Dream - The Dream Roots Collection [5CD Box Set] (1996)
Tangerine Dream - Electronic Meditation (1970) [Reissue 1996]
Tangerine Dream - Zeit (1972) [Reissue 1996]
Tangerine Dream - Phaedra (1974) [Definitive Edition 1995]
Tangerine Dream - Ricochet (1975) [Definitive Edition 1995]
Tangerine Dream - Stratosfear (1976) [Definitive Edition 1995]
Tangerine Dream - Force Majeure (1979) [Reissue 1995]
Tangerine Dream - Pergamon (1980) [Reissue 1996]
Tangerine Dream - White Eagle (1982) [Reissue 1995]
Tangerine Dream - Logos Live (1982) [Definitive Edition 1995]
Tangerine Dream - Legend (OST) (1986) [Reissue 1995]
Tangerine Dream - Optical Race (1988)
Tangerine Dream - Live Miles (1988) [Reissue 2003]
Tangerine Dream - Lily On The Beach (1989)
Tangerine Dream - Melrose (1990)
Tangerine Dream - Dead Solid Perfect (OST) (1990)
Tangerine Dream - The Park Is Mine (OST) (1991)
Tangerine Dream - Deadly Care (OST) (1992)
Tangerine Dream - Quinoa (1992) [Reissue 2009]
Tangerine Dream - Catch Me If You Can (OST) (1994)
Tangerine Dream - Tyranny Of Beauty (1995)
Tangerine Dream - Zoning (OST) (1996)
Tangerine Dream - The Hollywood Years Vol. 1 (1998)
Tangerine Dream - The Hollywood Years Vol. 2 (1998)
Tangerine Dream - Antique Dreams (2000)
Tangerine Dream - Soundmill Navigator (2000)
Tangerine Dream - The Bootleg Box Set Vol. 1 [7CD] (2003)
Tangerine Dream - Purgatorio (2004)
Tangerine Dream - Arizona Live '92 (2004) [Reissue 2009]
Tangerine Dream - Cleveland - June 24th 1986 (2005)
Tangerine Dream - Blue Dawn (2006)
Tangerine Dream - The Essential Tangerine Dream (2006)
Tangerine Dream - Plays Tangerine Dream (2006)
Tangerine Dream - Views From A Red Train (2008)
Tangerine Dream - Booster (2008)
Tangerine Dream - Booster Vol. 2 (2008)
Tangerine Dream - The Antholog... Space Years Volume One (2008)
Tangerine Dream - DM V (Dream Mixes V) (2010)
Tangerine Dream - The London Eye Concert (2010)
Tangerine Dream - Edgar Allan Poe's The Island Of The Fay (2011)
Tangerine Dream - The Virgin Years 1974-1978 [3CD Box Set] (2011)
Tangerine Dream - The Official...ies Vol.1 [4CD Box Set] (2015)
Edgar Froese - 2 Albums (1974-1995)
Edgar Froese - Ages (1978) [Reissue 1997]
Edgar Froese - Pinnacles (1983)