Tags
Language
Tags

Tangerine Dream - Zeit (1972) [Reissue 1996]

Posted By: gribovar
Tangerine Dream - Zeit (1972) [Reissue 1996]

Tangerine Dream - Zeit (1972) [Reissue 1996]
EAC Rip | FLAC (image+.cue+log) - 299 MB | MP3 CBR 320 kbps (LAME 3.93) - 192 MB | Covers (16 MB) included
Genre: Ambient, Space Music | RAR 3% Rec. | Label: Castle Communications (ESM CD 347)

TD's purest expression of "space music," this double album ebbs and flows effortlessly from one tone cluster to another. Almost classical in construction, the music is structured so as to evolve in sections as one theme literally melts into the next. Florian Fricke (of Popol Vuh) played the big Moog on this album and the overall texture of the electronics is warm and shimmering.

Tracklist:
01. Birth of Liquid Plejades
02. Nebulous Dawn
03. Origin of Supernatural Probabilities
04. Zeit

Total time: 01:14:24

Exact Audio Copy V0.99 prebeta 4 from 23. January 2008

EAC extraction logfile from 28. February 2009, 13:50

Tangerine Dream / Zeit

Used drive : Optiarc DVD RW AD-7191A Adapter: 0 ID: 0

Read mode : Secure
Utilize accurate stream : Yes
Defeat audio cache : Yes
Make use of C2 pointers : No

Read offset correction : 6
Overread into Lead-In and Lead-Out : No
Fill up missing offset samples with silence : Yes
Delete leading and trailing silent blocks : No
Null samples used in CRC calculations : Yes
Used interface : Installed external ASPI interface

Used output format : Internal WAV Routines
Sample format : 44.100 Hz; 16 Bit; Stereo


TOC of the extracted CD

Track | Start | Length | Start sector | End sector
––––––––––––––––––––––––––––-
1 | 0:00.00 | 19:54.00 | 0 | 89549
2 | 19:54.00 | 17:56.40 | 89550 | 170289
3 | 37:50.40 | 19:34.45 | 170290 | 258384
4 | 57:25.10 | 16:58.37 | 258385 | 334771


Range status and errors

Selected range

Filename J:\lossless\Tangerine Dream\1972 - Zeit\Tangerine Dream - Zeit.wav

Peak level 97.8 %
Range quality 100.0 %
Test CRC 23E744F3
Copy CRC 23E744F3
Copy OK

No errors occurred


AccurateRip summary

Track 1 accurately ripped (confidence 11) [C0329C67]
Track 2 accurately ripped (confidence 11) [20C93D52]
Track 3 accurately ripped (confidence 10) [662B91ED]
Track 4 accurately ripped (confidence 9) [6E4298D7]

All tracks accurately ripped

End of status report

[CUETools log; Date: 08.10.2018 2:23:25; Version: 2.1.4]
[CTDB TOCID: qyLLmhvpw584roi51H37xsMmC7I-] found.
Track | CTDB Status
1 | (177/178) Accurately ripped
2 | (177/178) Accurately ripped
3 | (175/178) Accurately ripped
4 | (169/178) Accurately ripped
[AccurateRip ID: 000d0405-0033d6fb-32116f04] found.
Track [ CRC | V2 ] Status
01 [c0329c67|efe1f8f9] (044+042/178) Accurately ripped
02 [20c93d52|8258fcaa] (044+041/177) Accurately ripped
03 [662b91ed|9fcef568] (044+041/176) Accurately ripped
04 [6e4298d7|1afd8160] (041+036/164) Accurately ripped
Offsetted by -1815:
01 [67b8848b] (007/178) Accurately ripped
02 [d2dfecf1] (007/177) Accurately ripped
03 [4bbd6883] (006/176) Accurately ripped
04 [6defc01f] (005/164) Accurately ripped
Offsetted by -1336:
01 [fa346b87] (006/178) Accurately ripped
02 [ab1182ca] (006/177) Accurately ripped
03 [6defeb9d] (006/176) Accurately ripped
04 [912fce9c] (006/164) Accurately ripped
Offsetted by -1318:
01 [c4eb94cf] (006/178) Accurately ripped
02 [ccd895c8] (006/177) Accurately ripped
03 [5e1eb649] (006/176) Accurately ripped
04 [d0b2de10] (006/164) Accurately ripped
Offsetted by -672:
01 [302741e7] (015/178) Accurately ripped
02 [33c122f2] (015/177) Accurately ripped
03 [5f58ae2d] (015/176) Accurately ripped
04 [e64a5092] (015/164) Accurately ripped
Offsetted by -654:
01 [fade6b2f] (007/178) Accurately ripped
02 [558835f0] (007/177) Accurately ripped
03 [4f8778d9] (007/176) Accurately ripped
04 [7b4773fa] (005/164) Accurately ripped
Offsetted by -271:
01 [543420ab] (004/178) Accurately ripped
02 [79941129] (004/177) Accurately ripped
03 [70c06db3] (004/176) Accurately ripped
04 [b4356ec4] (004/164) Accurately ripped

Track Peak [ CRC32 ] [W/O NULL] [ LOG ]
– 97,8 [23E744F3] [A169EA5C] CRC32
01 96,9 [4992C998] [37726CEF]
02 97,5 [D8192C85] [CA83CE5D]
03 97,6 [AE4C9438] [A123D0AC]
04 97,8 [81C9CF9F] [3C7FACDF]

Thanks to mr_suicide

See also:

Tangerine Dream - The Electronic Journey (2010) [10CD Box Set]
Tangerine Dream - The Dream Roots Collection [5CD Box Set] (1996)
Tangerine Dream - Electronic Meditation (1970) [Reissue 1996]
Tangerine Dream - Phaedra (1974) [Definitive Edition 1995]
Tangerine Dream - Ricochet (1975) [Definitive Edition 1995]
Tangerine Dream - Stratosfear (1976) [Definitive Edition 1995]
Tangerine Dream - Pergamon (1980) [Reissue 1996]
Tangerine Dream - Logos Live (1982) [Definitive Edition 1995]
Tangerine Dream - Legend (OST) (1986) [Reissue 1995]
Tangerine Dream - Optical Race (1988)
Tangerine Dream - Live Miles (1988) [Reissue 2003]
Tangerine Dream - Lily On The Beach (1989)
Tangerine Dream - Melrose (1990)
Tangerine Dream - Dead Solid Perfect (OST) (1990)
Tangerine Dream - The Park Is Mine (OST) (1991)
Tangerine Dream - Deadly Care (OST) (1992)
Tangerine Dream - Quinoa (1992) [Reissue 2009]
Tangerine Dream - Catch Me If You Can (OST) (1994)
Tangerine Dream - Tyranny Of Beauty (1995)
Tangerine Dream - Zoning (OST) (1996)
Tangerine Dream - The Hollywood Years Vol. 1 (1998)
Tangerine Dream - The Hollywood Years Vol. 2 (1998)
Tangerine Dream - Antique Dreams (2000)
Tangerine Dream - Soundmill Navigator (2000)
Tangerine Dream - The Bootleg Box Set Vol. 1 [7CD] (2003)
Tangerine Dream - Purgatorio (2004)
Tangerine Dream - Arizona Live '92 (2004) [Reissue 2009]
Tangerine Dream - Cleveland - June 24th 1986 (2005)
Tangerine Dream - Blue Dawn (2006)
Tangerine Dream - The Essential Tangerine Dream (2006)
Tangerine Dream - Plays Tangerine Dream (2006)
Tangerine Dream - Views From A Red Train (2008)
Tangerine Dream - Booster (2008)
Tangerine Dream - Booster Vol. 2 (2008)
Tangerine Dream - The Antholog... Space Years Volume One (2008)
Tangerine Dream - DM V (Dream Mixes V) (2010)
Tangerine Dream - The London Eye Concert (2010)
Tangerine Dream - Edgar Allan Poe's The Island Of The Fay (2011)
Tangerine Dream - The Virgin Years 1974-1978 [3CD Box Set] (2011)
Tangerine Dream - The Official...ies Vol.1 [4CD Box Set] (2015)
Edgar Froese - 2 Albums (1974-1995)
Edgar Froese - Ages (1978) [Reissue 1997]
Edgar Froese - Pinnacles (1983)