Subcategories

Tangerine Dream - Thief (1981) [1995, Definitive Edition, SBM Remaster] Re-Upload

Posted By: technick
Tangerine Dream - Thief (1981) [1995, Definitive Edition, SBM Remaster] Re-Upload

Tangerine Dream - Thief (1981)
[1995, Definitive Edition, SBM Remaster]

EAC: ape (image) + cue + log | RAR, 3%, 241,78 MB
mp3, 320 kbps | RAR, 3%, 94,36 MB | Scans | RAR, 3%, 26,05 MB
Label: Virgin Records | Cat №: 7243 8 40520 27

"Thief" is a soundtrack album by Tangerine Dream for the film "Thief", directed by Michael Mann. It reached No. 43 on the UK Albums Chart in a 3-week run.
"Beach Theme" and "Beach Scene" are two different mixes of the same piece. The album version of "Dr. Destructo" is quite different from the film version. An extended version of "Dr. Destructo" was available only on a promo single. "Igneous" is a remix of "Thru Metamorphic Rocks" from the 1979 album "Force Majeure". Neither "Beach Theme" nor "Trap Feeling" appear in the film.
In 1995 Virgin re-released the album on CD in the so-called "Definitive Edition" series, featuring the original front cover artwork. Like most of the other releases of this series, it contains some little errors: The track sequence on the CD body is wrong (track 4 and 5 are exchanged), Edgar Froese's name is misspelled Frose in the booklet, the backside insert features the name of Peter Baumann instead of Johannes Schmoelling, and the soundtrack is alleged to be a "Live" CD on the backstrip.
Exact Audio Copy V0.99 prebeta 5 from 4. May 2009

EAC extraction logfile from 14. January 2010, 23:00

Tangerine Dream / Thief

Used drive : ASUS DRW-1814BL Adapter: 0 ID: 0

Read mode : Secure
Utilize accurate stream : Yes
Defeat audio cache : Yes
Make use of C2 pointers : No

Read offset correction : 6
Overread into Lead-In and Lead-Out : No
Fill up missing offset samples with silence : Yes
Delete leading and trailing silent blocks : No
Null samples used in CRC calculations : Yes
Used interface : Native Win32 interface for Win NT & 2000

Used output format : Internal WAV Routines
Sample format : 44.100 Hz; 16 Bit; Stereo


TOC of the extracted CD

Track | Start | Length | Start sector | End sector
––––––––––––––––––––––––––––-
1 | 0:00.00 | 3:46.05 | 0 | 16954
2 | 3:46.05 | 3:19.30 | 16955 | 31909
3 | 7:05.35 | 10:50.20 | 31910 | 80679
4 | 17:55.55 | 3:12.27 | 80680 | 95106
5 | 21:08.07 | 6:52.18 | 95107 | 126024
6 | 28:00.25 | 4:39.22 | 126025 | 146971
7 | 32:39.47 | 2:59.25 | 146972 | 160421
8 | 35:38.72 | 4:46.30 | 160422 | 181901


Range status and errors

Selected range

Filename D:\EAC\Tangerine Dream - Thief.wav

Peak level 97.2 %
Range quality 100.0 %
Test CRC 9E73DDE0
Copy CRC 9E73DDE0
Copy OK

No errors occurred


AccurateRip summary

Track 1 accurately ripped (confidence 22) [52145840]
Track 2 accurately ripped (confidence 22) [B5F92BCF]
Track 3 accurately ripped (confidence 22) [22F45770]
Track 4 accurately ripped (confidence 22) [7440AB24]
Track 5 accurately ripped (confidence 22) [6D0D0FD4]
Track 6 accurately ripped (confidence 22) [2DB654C8]
Track 7 accurately ripped (confidence 22) [E6D27AC2]
Track 8 accurately ripped (confidence 22) [8DD5C51F]

All tracks accurately ripped

End of status report
foobar2000 1.2.6 / Dynamic Range Meter 1.1.1
log date: 2015-01-31 07:58:46

––––––––––––––––––––––––––––––––––––––––
Analyzed: Tangerine Dream / Thief
––––––––––––––––––––––––––––––––––––––––

DR Peak RMS Duration Track
––––––––––––––––––––––––––––––––––––––––
DR13 -0.87 dB -16.19 dB 3:46 01-Beach Theme
DR13 -0.30 dB -15.16 dB 3:19 02-Dr. Destructo
DR12 -1.27 dB -15.68 dB 10:50 03-Diamond Diary
DR11 -1.50 dB -14.33 dB 3:12 04-Burning Bar
DR13 -0.24 dB -15.63 dB 6:52 05-Beach Scene
DR10 -0.71 dB -13.13 dB 4:39 06-Scrap Yard
DR11 -5.04 dB -19.05 dB 2:59 07-Trap Feeling
DR12 -1.24 dB -16.69 dB 4:46 08-Igneous
––––––––––––––––––––––––––––––––––––––––

Number of tracks: 8
Official DR value: DR12

Samplerate: 44100 Hz
Channels: 2
Bits per sample: 16
Bitrate: 806 kbps
Codec: Monkey's Audio
================================================================================

Tangerine Dream - Thief (1981) [1995, Definitive Edition, SBM Remaster] Re-Upload

Tracklist:
01. Beach Theme [03:46]
02. Dr. Destructo [03:19]
03. Diamond Diary [10:50]
04. Burning Car [03:12]
05. Beach Scene [06:52]
06. Scrap Yard [04:39]
07. Trap Feeling [02:59]
08. Ingeous [04:46]
–––––––––––––
Total time: [40:25]
Tangerine Dream - Thief (1981) [1995, Definitive Edition, SBM Remaster] Re-Upload
Tangerine Dream - Thief (1981) [1995, Definitive Edition, SBM Remaster] Re-Upload

No mirrors, please!
Don't post these links at any web pages, please. Keep these files alive!
Not my rip! All Thanks to original ripper!

Welcome to My Blog!
NitroFlare: Part1, Part2, mp3, scans.
pass: kermith