Tags
Language
Tags
April 2024
Su Mo Tu We Th Fr Sa
31 1 2 3 4 5 6
7 8 9 10 11 12 13
14 15 16 17 18 19 20
21 22 23 24 25 26 27
28 29 30 1 2 3 4

Taylor Swift - Reputation Stadium Tour (2018) [UHDTV, 2160p]

Posted By: v3122
Taylor Swift - Reputation Stadium Tour (2018) [UHDTV, 2160p]

Iron Maiden - The Book Of Souls: Live Chapter (2017)
MKV: MPEG4 Video (H264) 1920x1080, 25fps, 10.3 Mb/s
PCM 48000Hz, stereo, 2304kbps / FLAC 48000Hz, stereo, 1007kbps
Heavy Metal | 01:56:45 | ~ 11.61 Gb

Taylor Swift's Reputation Stadium Tour was the fifth concert tour by American singer-songwriter Taylor Swift, in support of her sixth studio album, Reputation (2017). The tour began on May 8, 2018 in Glendale and concluded on November 21, 2018 in Tokyo, comprising 53 concerts. The supporting acts for the tour were Charli XCX, Camila Cabello, and Broods.

A concert film of the same name was released on Netflix on December 31, 2018. It was filmed at the second show in Arlington, Texas on October 6, 2018…

~ wiki
Taylor Swift - Reputation Stadium Tour (2018):

Tracklist:

01. …Ready For It?
02. I Did Something Bad
03. Gorgeous
04. Style/Love Story/You Belong with Me Mashup
05. Look What You Made Me Do
06. End Game
07. King of My Heart
08. Delicate
09. Shake It Off (with Camila Cabello & Charli XCX)
10. Dancing with Our Hands Tied (Acoustic)
11. All Too Well (Acoustic)
12. Blank Space
13. Dress
14. Bad Blood/Should've Said No Mashup
15. Don't Blame Me
16. Long Live/New Year's Day Mashup
17. Getaway Car
18. Call It What You Want
19. We Are Never Ever Getting Back Together/This Is Why We Can't Have Nice Things Mashup

General
Unique ID : 34400020535554416735444350460160415034 (0x19E133F56DC4A2316FA1054F43C0953A)
Complete name : E:\Mix\Taylor Swift - Reputation Stadium Tour\Taylor Swift - Reputation Stadium Tour (2018) 2160p HDR Netflix WEBRip DD+ Atmos 5.1 x265-TrollUHD.mkv
Format : Matroska
Format version : Version 4 / Version 2
File size : 23.2 GiB
Duration : 2h 5mn
Overall bit rate : 26.5 Mbps
Encoded date : UTC 2018-12-30 09:25:13
Writing application : mkvmerge v23.0.0 ('The Bride Said No') 64-bit
Writing library : Lavf58.0.0

Video
ID : 1
Format : HEVC
Format/Info : High Efficiency Video Coding
Codec ID : V_MPEGH/ISO/HEVC
Duration : 2h 5mn
Bit rate : 25.5 Mbps
Width : 3 840 pixels
Height : 1 600 pixels
Display aspect ratio : 2.40:1
Frame rate mode : Constant
Frame rate : 23.976 fps
Bits/(Pixel*Frame) : 0.173
Stream size : 22.3 GiB (96%)
Default : Yes
Forced : No
Encoded date : UTC 2018-12-30 09:25:13
HANDLER_NAME : Audio Media Handler

Audio
ID : 2
Format : E-AC-3
Format/Info : Audio Coding 3
Format settings, Endianness : Big
Codec ID : A_EAC3
Duration : 2h 5mn
Bit rate mode : Constant
Bit rate : 448 Kbps
Channel(s) : 6 channels
Channel positions : Front: L C R, Side: L R, LFE
Sampling rate : 48.0 KHz
Compression mode : Lossy
Stream size : 402 MiB (2%)
Language : English
Default : Yes
Forced : No

Text #1
ID : 3
Format : UTF-8
Codec ID : S_TEXT/UTF8
Codec ID/Info : UTF-8 Plain Text
Title : English
Language : English
Default : No
Forced : No

Text #2
ID : 4
Format : UTF-8
Codec ID : S_TEXT/UTF8
Codec ID/Info : UTF-8 Plain Text
Title : Brazilian Portuguese
Language : Portuguese
Default : No
Forced : No

Text #3
ID : 5
Format : UTF-8
Codec ID : S_TEXT/UTF8
Codec ID/Info : UTF-8 Plain Text
Title : Polish
Language : Polish
Default : No
Forced : No

Text #4
ID : 6
Format : UTF-8
Codec ID : S_TEXT/UTF8
Codec ID/Info : UTF-8 Plain Text
Title : Simplified Chinese
Language : Chinese
Default : No
Forced : No

Text #5
ID : 7
Format : UTF-8
Codec ID : S_TEXT/UTF8
Codec ID/Info : UTF-8 Plain Text
Title : Korean
Language : Korean
Default : No
Forced : No

Text #6
ID : 8
Format : UTF-8
Codec ID : S_TEXT/UTF8
Codec ID/Info : UTF-8 Plain Text
Title : Finnish
Language : Finnish
Default : No
Forced : No

Text #7
ID : 9
Format : UTF-8
Codec ID : S_TEXT/UTF8
Codec ID/Info : UTF-8 Plain Text
Title : Swedish
Language : Swedish
Default : No
Forced : No

Text #8
ID : 10
Format : UTF-8
Codec ID : S_TEXT/UTF8
Codec ID/Info : UTF-8 Plain Text
Title : Hebrew
Language : Hebrew
Default : No
Forced : No

Text #9
ID : 11
Format : UTF-8
Codec ID : S_TEXT/UTF8
Codec ID/Info : UTF-8 Plain Text
Title : French
Language : French
Default : No
Forced : No

Text #10
ID : 12
Format : UTF-8
Codec ID : S_TEXT/UTF8
Codec ID/Info : UTF-8 Plain Text
Title : Arabic
Language : Arabic
Default : No
Forced : No

Text #11
ID : 13
Format : UTF-8
Codec ID : S_TEXT/UTF8
Codec ID/Info : UTF-8 Plain Text
Title : Norwegian
Language : Norwegian
Default : No
Forced : No

Text #12
ID : 14
Format : UTF-8
Codec ID : S_TEXT/UTF8
Codec ID/Info : UTF-8 Plain Text
Title : Danish
Language : Danish
Default : No
Forced : No

Text #13
ID : 15
Format : UTF-8
Codec ID : S_TEXT/UTF8
Codec ID/Info : UTF-8 Plain Text
Title : Romanian
Language : Romanian
Default : No
Forced : No

Text #14
ID : 16
Format : UTF-8
Codec ID : S_TEXT/UTF8
Codec ID/Info : UTF-8 Plain Text
Title : Russian
Language : Russian
Default : No
Forced : No

Text #15
ID : 17
Format : UTF-8
Codec ID : S_TEXT/UTF8
Codec ID/Info : UTF-8 Plain Text
Title : Greek
Language : Greek
Default : No
Forced : No

Text #16
ID : 18
Format : UTF-8
Codec ID : S_TEXT/UTF8
Codec ID/Info : UTF-8 Plain Text
Title : German
Language : German
Default : No
Forced : No

Text #17
ID : 19
Format : UTF-8
Codec ID : S_TEXT/UTF8
Codec ID/Info : UTF-8 Plain Text
Title : Italian
Language : Italian
Default : No
Forced : No

Text #18
ID : 20
Format : UTF-8
Codec ID : S_TEXT/UTF8
Codec ID/Info : UTF-8 Plain Text
Title : Spanish
Language : Spanish
Default : No
Forced : No

Text #19
ID : 21
Format : UTF-8
Codec ID : S_TEXT/UTF8
Codec ID/Info : UTF-8 Plain Text
Title : European Spanish
Language : Spanish
Default : No
Forced : No

Text #20
ID : 22
Format : UTF-8
Codec ID : S_TEXT/UTF8
Codec ID/Info : UTF-8 Plain Text
Title : Thai
Language : Thai
Default : No
Forced : No

Text #21
ID : 23
Format : UTF-8
Codec ID : S_TEXT/UTF8
Codec ID/Info : UTF-8 Plain Text
Title : Dutch
Language : Dutch
Default : No
Forced : No

Text #22
ID : 24
Format : UTF-8
Codec ID : S_TEXT/UTF8
Codec ID/Info : UTF-8 Plain Text
Title : Indonesian
Language : Indonesian
Default : No
Forced : No

Text #23
ID : 25
Format : UTF-8
Codec ID : S_TEXT/UTF8
Codec ID/Info : UTF-8 Plain Text
Title : Japanese
Language : Japanese
Default : No
Forced : No

Text #24
ID : 26
Format : UTF-8
Codec ID : S_TEXT/UTF8
Codec ID/Info : UTF-8 Plain Text
Title : Traditional Chinese
Language : Chinese
Default : No
Forced : No

Text #25
ID : 27
Format : UTF-8
Codec ID : S_TEXT/UTF8
Codec ID/Info : UTF-8 Plain Text
Title : Turkish
Language : Turkish
Default : No
Forced : No

Text #26
ID : 28
Format : UTF-8
Codec ID : S_TEXT/UTF8
Codec ID/Info : UTF-8 Plain Text
Title : Portuguese
Language : Portuguese
Default : No
Forced : No

Text #27
ID : 29
Format : UTF-8
Codec ID : S_TEXT/UTF8
Codec ID/Info : UTF-8 Plain Text
Title : Portuguese
Language : Portuguese
Default : No
Forced : No



Taylor Swift - Reputation Stadium Tour (2018) [UHDTV, 2160p]

Taylor Swift - Reputation Stadium Tour (2018) [UHDTV, 2160p]

Taylor Swift - Reputation Stadium Tour (2018) [UHDTV, 2160p]

Taylor Swift - Reputation Stadium Tour (2018) [UHDTV, 2160p]

Taylor Swift - Reputation Stadium Tour (2018) [UHDTV, 2160p]

All thanks go to anbelk27

Taylor Swift in my Blog

Download Taylor Swift - Reputation Stadium Tour (2018):